Приключения Плуто Нэша / The Adventures of Pluto Nash (Рон Андервуд / Ron Underwood) [2002, США, Австралия, фантастика, комедия, VHSRip] [Full Screen] Dub

Reply to topic
 
Author
Message

Wolf ®

Gender: Unknown

Longevity: 11 years

Posts: 3104

Reputation: 0 [+] [-]

Wolf · Post 26-Feb-2017 00:10

[Quote] 

Приключения Плуто Нэша / The Adventures of Pluto Nash
[Full Screen]
«Приключения будущего начинаются сегодня»
Страна: США, Австралия
Жанр: фантастика, комедия
Год выпуска: 2002
Продолжительность: 01:31:17
Перевод: Профессиональный (дублированный) Премьер ??
Cубтитры: нет
Режиссер: Рон Андервуд / Ron Underwood
В ролях: Эдди Мерфи, Рэнди Куэйд, Розарио Доусон, Джо Пантолиано, Джей Мор, Луис Гусман, Джеймс Реборн, Питер Бойл, Пэм Гриер, Джон Клиз, Берт Янг, Мигель А. Нуньес-мл., Иллеана Дуглас, Алек Болдуин
Описание: В 2080 году в Малой Америке на Луне бывший жулик Плуто Нэш помог другу-неудачнику, мечтавшему о карьере поп-звезды, выкупить у мафии замызганный бар. К 2087 году друг стал поп-звездой, а Плуто — хозяином самого модного ночного заведения во Вселенной.
В этот момент тут, на Луне, легализовали азартные игры, и клуб опять стал приманкой для мафии. Вскоре Плуто в обществе недоделанного робота Бруно и несостоявшейся певички Дины пришлось по всей Луне улепетывать от армии громил, правда, не очень высокой квалификации.
Отсутствие земного притяжения, но 100% веселья! Так обстоят дела на Луне, если вы отправляетесь туда с Эдди Мёрфи. Блистательный Мёрфи, до зубов вооруженный остроумием и "упакованный" в луннный скафандр, исполняет главную роль в комедии "высокого полета", снятую режиссером Роном Андервудом (Дрожь земли, Городские пижоны). На дворе 2087 год, и будущее кажется не таким безоблачным, как предствлялось раньше — гостка злобных мафиози (одного из которых играет Джо Пантолиано) "наезжают" на клуб, которым управляет наш герой Плуто Нэш. Но храбрый Плуто не готов распрощаться со своими денежками. С помощью своего робота-телохранителя (Рэнди Куэйд), красотки-певицы (Росарио Доусон), крутой мамаши (Пэм Гриер) и слегка чокнутой суперзвезды (Джей Мор) Нэш собирается "разобраться" с бандитами с учетом новейших технологий будущего.
Доп. информация: Оцифровка лицензионной VHS (личный архив) и получение VHSRip alenavova
Эксклюзив для torrentsland.com.ua. При размещении данного релиза на других сайтах ссылка на автора alenavova обязательна.

Релиз
Сэмпл: https://yadi.sk/i/rY7I9bop3ESkVd
Качество видео: VHSRip
Формат видео: AVI
Видео: 704x528 (1.33:1), 25 fps, XviD build 73 ~1941 kbps avg, 0.21 bit/pixel
Аудио: 48 kHz, AC3 Dolby Digital, 2/0 (L,R) ch, ~192 kbps

MediaInfo

Приключения Плуто Нэша - The Adventures of Pluto Nash [by alenavova].avi
Format : AVI
Format/Info : Audio Video Interleave
File size : 1.37 GiB
Duration : 1 h 31 min
Overall bit rate : 2 143 kb/s
Movie name : Приключения Плуто Нэша - The Adventures of Pluto Nash [by alenavova]
Director : by alenavova
Writing application : VirtualDubMod 1.5.10.3 | www.virtualdub-fr.org || (build 2550/release)
Copyright : Edich2
Comment : torrentsland.com.ua
Video
ID : 0
Format : MPEG-4 Visual
Format profile : Advanced Simple@L5
Format settings, BVOP : 1
Format settings, QPel : No
Format settings, GMC : No warppoints
Format settings, Matrix : Custom
Codec ID : XVID
Codec ID/Hint : XviD
Duration : 1 h 31 min
Bit rate : 1 941 kb/s
Width : 704 pixels
Height : 528 pixels
Display aspect ratio : 4:3
Frame rate : 25.000 FPS
Color space : YUV
Chroma subsampling : 4:2:0
Bit depth : 8 bits
Scan type : Progressive
Compression mode : Lossy
Bits/(Pixel*Frame) : 0.209
Stream size : 1.24 GiB (91%)
Writing library : XviD 73
Audio
ID : 1
Format : AC-3
Format/Info : Audio Coding 3
Mode extension : CM (complete main)
Format settings, Endianness : Big
Codec ID : 2000
Duration : 1 h 31 min
Bit rate mode : Constant
Bit rate : 192 kb/s
Channel(s) : 2 channels
Channel positions : Front: L R
Sampling rate : 48.0 kHz
Frame rate : 31.250 FPS (1536 spf)
Bit depth : 16 bits
Compression mode : Lossy
Stream size : 125 MiB (9%)
Alignment : Split accross interleaves
Interleave, duration : 40 ms (1.00 video frame)
Interleave, preload duratio : 500 ms

Скриншоты


[Profile]  [PM] 
Display posts:    
Reply to topic

Current time is: 25-Jul 21:51

All times are UTC + 2



You cannot post new topics in this forum
You cannot reply to topics in this forum
You cannot edit your posts in this forum
You cannot delete your posts in this forum
You cannot vote in polls in this forum
You cannot attach files in this forum
You cannot download files in this forum