Плохой Санта / Bad Santa (Терри Цвигофф / Terry Zwigoff) [2003, США, Германия, комедия, криминал, VHSRip] [Full Screen] Dub

Reply to topic
 
Author
Message

Wolf ®

Gender: Unknown

Longevity: 11 years

Posts: 3104

Reputation: 0 [+] [-]

Wolf · Post 26-Feb-2017 00:10

[Quote] 

Плохой Санта / Bad Santa
[Full Screen]

«Get Naughty this Holiday Season»

Страна: США, Германия
Жанр: комедия, криминал
Год выпуска: 2003
Продолжительность: 01:27:54
Перевод: Профессиональный (дублированный)
Cубтитры: нет
Режиссер: Терри Цвигофф / Terry Zwigoff
В ролях: Билли Боб Торнтон, Тони Кокс, Бретт Келли, Лорен Грэм, Лоурен Том, Берни Мак, Джон Риттер, Аджай Найду, Клорис Личмен, Мэтт Уолш
Описание: Вилли (Билли Боб Торнтон - "Невыносимая жестокость", "Армагеддон") - необычный Санта Клаус. Раз в год на Рождество он вместе со своим напарником грабит очередной универмаг. К тому же, в прошлом отсидел в тюрьме, был не одиножды женат, а ныне злостный бабник и пропойца. Он по-настоящему плохой, невыносимый Санта! Но нашелся мальчуган, который все-таки в него поверил. И не просыхающему Вилли надо делать чудеса, чтоб и на сей раз довести задуманное до конца!..
Доп. информация: Оцифровка лицензионной VHS (личный архив) и получение VHSRip alenavova
Эксклюзив для torrentsland.com.ua. При размещении данного релиза на других сайтах ссылка на автора alenavova обязательна.

Релиз
Сэмпл: https://yadi.sk/i/10bAuCx_3ESaUz
Качество видео: VHSRip
Формат видео: AVI
Видео: 704x528 (1.33:1), 25 fps, XviD build 73 ~2025 kbps avg, 0.22 bit/pixel
Аудио: 48 kHz, AC3 Dolby Digital, 2/0 (L,R) ch, ~192 kbps

MediaInfo

Плохой Санта - Bad Santa [by alenavova].avi
Format : AVI
Format/Info : Audio Video Interleave
File size : 1.37 GiB
Duration : 1 h 27 min
Overall bit rate : 2 227 kb/s
Movie name : Плохой Санта - Bad Santa [by alenavova]
Director : by alenavova
Writing application : VirtualDubMod 1.5.10.3 | www.virtualdub-fr.org || (build 2550/release)
Copyright : Edich2
Comment : torrentsland.com.ua
Video
ID : 0
Format : MPEG-4 Visual
Format profile : Advanced Simple@L5
Format settings, BVOP : 1
Format settings, QPel : No
Format settings, GMC : No warppoints
Format settings, Matrix : Custom
Codec ID : XVID
Codec ID/Hint : XviD
Duration : 1 h 27 min
Bit rate : 2 026 kb/s
Width : 704 pixels
Height : 528 pixels
Display aspect ratio : 4:3
Frame rate : 25.000 FPS
Color space : YUV
Chroma subsampling : 4:2:0
Bit depth : 8 bits
Scan type : Progressive
Compression mode : Lossy
Bits/(Pixel*Frame) : 0.218
Stream size : 1.24 GiB (91%)
Writing library : XviD 73
Audio
ID : 1
Format : AC-3
Format/Info : Audio Coding 3
Mode extension : CM (complete main)
Format settings, Endianness : Big
Codec ID : 2000
Duration : 1 h 27 min
Bit rate mode : Constant
Bit rate : 192 kb/s
Channel(s) : 2 channels
Channel positions : Front: L R
Sampling rate : 48.0 kHz
Frame rate : 31.250 FPS (1536 spf)
Bit depth : 16 bits
Compression mode : Lossy
Stream size : 121 MiB (9%)
Alignment : Split accross interleaves
Interleave, duration : 40 ms (1.00 video frame)
Interleave, preload duratio : 500 ms

Скриншоты


[Profile]  [PM] 
Display posts:    
Reply to topic

Current time is: 25-Jul 21:51

All times are UTC + 2



You cannot post new topics in this forum
You cannot reply to topics in this forum
You cannot edit your posts in this forum
You cannot delete your posts in this forum
You cannot vote in polls in this forum
You cannot attach files in this forum
You cannot download files in this forum