Вилленброк / Willenbrock (Андреас Дрезен / Andreas Dresen) [2005, Германия, драма, криминал, DVDRip] DVO

Reply to topic
 
Author
Message

Wolf ®

Gender: Unknown

Longevity: 11 years

Posts: 3104

Reputation: 0 [+] [-]

Wolf · Post 26-Feb-2017 00:10

[Quote] 

Вилленброк / Willenbrock

Страна: Германия
Жанр: драма, криминал
Год выпуска: 2005
Продолжительность: 01:43:38
Перевод: Профессиональный (двухголосый закадровый)
Cубтитры: нет

Режиссер: Андреас Дрезен / Andreas Dresen
В ролях: Аксель Праль, Инка Фридрих, Анна Ратте-Полле, Дагмар Манцель, Кристиан Грасхоф, Анджей Шопа, Тило Прюкнер, Владимир Тарасянц, Маргит Бендокат, Михаэль Гербер
Описание: Берндт Вилленброк живет в Магдебурге, в Восточной Германии. После падения Берлинской стены ему удалось приспособиться к новым условиям: он владеет небольшим автосалоном, дома — любящая жена Сюзанна. У него есть любовница по имени Вера. Кроме того, Берндт пытается завести роман со студенткой Анной. Не заметно для него самого все в его жизни начинает меняться не в лучшую сторону.
Качество видео: DVDRip
Формат видео: AVI
Видео: 704x304 (2.32:1), 25 fps, XviD build 73 ~1555 kbps avg, 0.29 bit/pixel
Аудио: 48 kHz, AC3 Dolby Digital, 3/2 (L,C,R,l,r) + LFE ch, ~448 kbps

MediaInfo

General
Complete name : H:\Willenbrock.2005.dvdrip_[1.46]_[teko].avi
Format : AVI
Format/Info : Audio Video Interleave
File size : 1.46 GiB
Duration : 1h 43mn
Overall bit rate : 2 014 Kbps
Writing application : VirtualDubMod 1.5.10.3 | www.virtualdub-fr.org || (build 2550/release)
Writing library : VirtualDubMod build 2550/release
Video
ID : 0
Format : MPEG-4 Visual
Format profile : Advanced Simple@L5
Format settings, BVOP : 2
Format settings, QPel : No
Format settings, GMC : No warppoints
Format settings, Matrix : Custom
Codec ID : XVID
Codec ID/Hint : XviD
Duration : 1h 43mn
Bit rate : 1 556 Kbps
Width : 704 pixels
Height : 304 pixels
Display aspect ratio : 2.35:1
Frame rate : 25.000 fps
Color space : YUV
Chroma subsampling : 4:2:0
Bit depth : 8 bits
Scan type : Progressive
Compression mode : Lossy
Bits/(Pixel*Frame) : 0.291
Stream size : 1.13 GiB (77%)
Writing library : XviD 73
Audio
ID : 1
Format : AC-3
Format/Info : Audio Coding 3
Mode extension : CM (complete main)
Format settings, Endianness : Big
Codec ID : 2000
Duration : 1h 43mn
Bit rate mode : Constant
Bit rate : 448 Kbps
Channel(s) : 6 channels
Channel positions : Front: L C R, Side: L R, LFE
Sampling rate : 48.0 KHz
Frame rate : 31.250 fps (1536 spf)
Compression mode : Lossy
Stream size : 332 MiB (22%)
Alignment : Split accross interleaves
Interleave, duration : 40 ms (1.00 video frame)
Interleave, preload duratio : 500 ms

Скриншоты

Релиз группы:
--
[Profile]  [PM] 
Display posts:    
Reply to topic

Current time is: 25-Jul 21:50

All times are UTC + 2



You cannot post new topics in this forum
You cannot reply to topics in this forum
You cannot edit your posts in this forum
You cannot delete your posts in this forum
You cannot vote in polls in this forum
You cannot attach files in this forum
You cannot download files in this forum