Под покровом ночи / Nocturnal Animals (Том Форд / Tom Ford) [2016, США, триллер, драма, BDRip-AVC] Dub + Sub (rus)

Reply to topic
 
Author
Message

Satyr ®

Online

Gender: Unknown

Longevity: 12 years

Posts: 17867

Reputation: 56 [+] [-]

Satyr · Post 26-Feb-2017 00:10

[Quote] 

Под покровом ночи / Nocturnal Animals«When you love someone you can't just throw it away»- Страна: США
Жанр: триллер, драма
Год выпуска: 2016
Продолжительность: 01:56:08
Перевод: Профессиональный (дублированный) (BD CEE)
Оригинальная аудиодорожка: нет
Субтитры: русские (форс.)
Навигация по главам: есть
Режиссер: Том Форд / Tom Ford
В ролях: Эми Адамс (Susan Morrow), Джейк Джилленхол (Tony Hastings / Edward Sheffield), Майкл Шеннон (Bobby Andes), Аарон Тейлор-Джонсон (Ray Marcus), Айла Фишер (Laura Hastings), Элли Бамбер (India Hastings), Арми Хаммер (Hutton Morrow), Карл Глусман (Lou), Роберт Арамайо (Turk), Лора Линни (Anne Sutton), Андреа Райзборо (Alessia), Майкл Шин (Carlos)
Описание: У Сьюзен роскошная жизнь в Лос-Анджелесе, прекрасный муж и собственная галерея. Но однажды она получает неожиданную посылку от бывшего супруга - он хотел бы встретиться, но сначала просит прочитать его новый роман. Сьюзен не подозревает, что как только она откроет рукопись, она вернется в прошлое, которое считала надежно укрытым под покровом ночи.- -Качество: BDRip-AVC (исходник - BDRemux|Nocturnal.Animals.2016.1080p.BluRay.REMUX.AVC.DTS-HD.MA.5.1-FGT)
Формат видео: MKV
Видео: x264, 1008х416 (2.40:1) 23,976 fps, ~1346 kbps, 0.134 bit/pixel
Аудио: 48 kHz, AC3 Dolby Digital, 3/2 (L,C,R,l,r) + LFE ch, ~448 kbps
Формат субтитров: softsub (SRT)-

MediaInfo | x264 log

Format : Matroska
Format version : Version 4 / Version 2
File size : 1.48 GiB
Duration : 1h 56 min
Overall bit rate : 1 830 kb/s
Movie name : Под покровом ночи / Nocturnal Animals (2016) :: AFM ::
Encoded date : UTC 2017-02-25 12:08:18
Writing application : mkvmerge v8.3.0 ('Over the Horizon') 32bit
Writing library : libebml v1.3.1 + libmatroska v1.4.2
Video
ID : 1
Format : AVC
Format/Info : Advanced Video Codec
Format profile : High@L4.1
Format settings, CABAC : Yes
Format settings, ReFrames : 10 frames
Codec ID : V_MPEG4/ISO/AVC
Duration : 1h 56 min
Bit rate : 1 346 kb/s
Width : 1 008 pixels
Height : 416 pixels
Display aspect ratio : 2.40:1
Frame rate mode : Constant
Frame rate : 23.976 (24000/1001) FPS
Color space : YUV
Chroma subsampling : 4:2:0
Bit depth : 8 bits
Scan type : Progressive
Bits/(Pixel*Frame) : 0.134
Stream size : 1.09 GiB (74%)
Title : BDRip by AFM
Writing library : x264 core 148 r2762+56 6284cf3 t_mod_Custom [8-bit@all X86_64]
Encoding settings : cabac=1 / ref=10 / deblock=1:-3:-2 / analyse=0x3:0x113 / me=umh / subme=10 / psy=1 / fade_compensate=0.00 / psy_rd=1.00:0.00 / mixed_ref=1 / me_range=32 / chroma_me=1 / trellis=2 / 8x8dct=1 / cqm=0 / deadzone=21,11 / fast_pskip=0 / chroma_qp_offset=-2 / threads=6 / lookahead_threads=1 / sliced_threads=0 / nr=0 / decimate=1 / interlaced=0 / bluray_compat=0 / constrained_intra=0 / fgo=0 / bframes=13 / b_pyramid=2 / b_adapt=2 / b_bias=0 / direct=1 / weightb=1 / open_gop=0 / weightp=2 / keyint=240 / keyint_min=23 / scenecut=40 / intra_refresh=0 / rc_lookahead=60 / rc=crf / mbtree=0 / crf=18.8800 / qcomp=0.65 / qpmin=0:0:0 / qpmax=69:69:69 / qpstep=4 / vbv_maxrate=50000 / vbv_bufsize=62500 / crf_max=0.0 / nal_hrd=none / filler=0 / ip_ratio=1.35 / pb_ratio=1.25 / aq=3:0.90 / aq-sensitivity=10.00 / aq-factor=1.00:1.00:1.00 / aq2=0 / aq3=0 / zones=157763,167063,q=30
Language : English
Default : Yes
Forced : No
Audio
ID : 2
Format : AC-3
Format/Info : Audio Coding 3
Mode extension : CM (complete main)
Format settings, Endianness : Big
Codec ID : A_AC3
Duration : 1h 56 min
Bit rate mode : Constant
Bit rate : 448 kb/s
Channel(s) : 6 channels
Channel positions : Front: L C R, Side: L R, LFE
Sampling rate : 48.0 kHz
Frame rate : 31.250 FPS (1536 spf)
Compression mode : Lossy
Stream size : 372 MiB (24%)
Title : Dub, AC3 5.1 ~448 kbps
Language : Russian
Default : Yes
Forced : No
Text
ID : 3
Format : UTF-8
Codec ID : S_TEXT/UTF8
Codec ID/Info : UTF-8 Plain Text
Title : forced
Language : Russian
Default : Yes
Forced : No
Menu
00:00:00.000 : en:Chapter 01
00:05:25.867 : en:Chapter 02
00:09:35.741 : en:Chapter 03
00:13:32.853 : en:Chapter 04
00:19:33.046 : en:Chapter 05
00:29:48.912 : en:Chapter 06
00:34:29.901 : en:Chapter 07
00:40:00.731 : en:Chapter 08
00:45:11.333 : en:Chapter 09
00:52:55.422 : en:Chapter 10
00:59:37.407 : en:Chapter 11
01:04:15.768 : en:Chapter 12
01:12:49.615 : en:Chapter 13
01:20:03.215 : en:Chapter 14
01:25:11.898 : en:Chapter 15
01:31:53.299 : en:Chapter 16
01:35:23.676 : en:Chapter 17
01:40:48.667 : en:Chapter 18
01:45:04.589 : en:Chapter 19
01:49:45.662 : en:Chapter 20

x264

x264 [info]: frame I:1460 Avg QP:15.42 size: 49256
x264 [info]: frame P:28903 Avg QP:17.13 size: 15911
x264 [info]: frame B:136700 Avg QP:19.53 size: 4906
x264 [info]: consecutive B-frames: 1.3% 0.6% 2.7% 7.9% 14.9% 47.6% 8.3% 2.2% 3.1% 1.8% 2.8% 2.0% 2.6% 2.2%
x264 [info]: mb I I16..4: 6.1% 78.2% 15.7%
x264 [info]: mb P I16..4: 0.5% 6.8% 0.8% P16..4: 37.7% 28.9% 16.9% 0.0% 0.0% skip: 8.4%
x264 [info]: mb B I16..4: 0.1% 0.4% 0.0% B16..8: 39.2% 9.7% 2.5% direct: 3.3% skip:44.8% L0:45.8% L1:46.2% BI: 8.0%
x264 [info]: 8x8 transform intra:81.2% inter:60.5%
x264 [info]: coded y,uvDC,uvAC intra: 87.1% 80.6% 66.9% inter: 16.7% 10.0% 2.2%
x264 [info]: i16 v,h,dc,p: 51% 9% 13% 28%
x264 [info]: i8 v,h,dc,ddl,ddr,vr,hd,vl,hu: 9% 7% 10% 10% 14% 14% 13% 12% 12%
x264 [info]: i4 v,h,dc,ddl,ddr,vr,hd,vl,hu: 8% 6% 4% 12% 17% 15% 13% 12% 13%
x264 [info]: i8c dc,h,v,p: 46% 22% 16% 16%
x264 [info]: Weighted P-Frames: Y:3.9% UV:1.8%
x264 [info]: ref P L0: 45.9% 7.4% 18.4% 7.3% 6.3% 4.4% 4.2% 2.1% 2.1% 1.8% 0.1% 0.0%
x264 [info]: ref B L0: 66.2% 13.5% 7.7% 4.0% 2.9% 2.4% 2.0% 0.9% 0.3%
x264 [info]: ref B L1: 91.5% 8.5%
x264 [info]: kb/s:1380.55

Скриншоты

с названием +18 (:

[Profile]  [PM] 
Display posts:    
Reply to topic

Current time is: 25-Jul 20:00

All times are UTC + 2



You cannot post new topics in this forum
You cannot reply to topics in this forum
You cannot edit your posts in this forum
You cannot delete your posts in this forum
You cannot vote in polls in this forum
You cannot attach files in this forum
You cannot download files in this forum