Каббалистическая психология (серии 1-29 из 29) (Семён Винокур) [2010, телепередача, WEB-DL Rip 720p]

Reply to topic
 
Author
Message

krasyarBB ®

Gender: Unknown

Longevity: 8 years 2 months

Posts: 32

Reputation: 0 [+] [-]

krasyarBB · Post 09-May-2013 16:26

[Quote] 

Каббалистическая психология / серии 1-29 из 29 -Год выпуска: 2010
Страна: Россия, Израиль
Производство: Ari Films
Жанр: телепередача
Продолжительность: 22:49:21
Перевод: оригинал (русский язык)
Субтитры: нет-В ролях: Михаэль Лайтман, Анатолий Ульянов, Ирина Якович
Режиссёр: Семён Винокур-Описание: Наши дни – удивительное время интеграции и взаимопроникновения. За круглым столом встречаются представители двух наук о душе человека – психолог и каббалист. И приходят к выводу: человек не в состоянии разобраться с самим собой.-Качество: WEB-DL Rip 720p
Формат: MP4
Видео кодек: MPEG-4 AVC (H.264)
Аудио кодек: AAC
Видео: 1280 x 720, 25,000 fps, ~ 1150 Kbps, ~ 0.050 bit/pixel
Аудио: 44,1 kHz, 2 (L,R) ch, ~ 150 kb/s
СЭМПЛ-Аудиоверсия телепередачи Каббалистическая психология / выпуски 1-29 из 29
-

Скриншоты

Расскадровка

MediaInfo

Общее
Полное имя : Kabbalisticheskaja_psihologija\Каббалистическая психология № 01.mp4
Формат : MPEG-4
Профиль формата : Base Media / Version 2
Идентификатор кодека : mp42
Размер файла : 604 Мбайт
Продолжительность : 54 м.
Режим общего битрейта : Переменный
Общий поток : 1546 Кбит/сек
Дата кодирования : UTC 2012-06-29 19:03:51
Дата пометки : UTC 2012-06-29 19:03:51
gsst : 0
gstd : 3279260
gssd : B4A7DDA81MH1341202982700105
gshh : o-o.preferred.fra07t11.v1.cache5.c.youtube.com
Видео
Идентификатор : 1
Формат : AVC
Формат/Информация : Advanced Video Codec
Профиль формата : High@L3.1
Параметр CABAC формата : Да
Параметр ReFrames формата : 1 кадр
Идентификатор кодека : avc1
Идентификатор кодека/Информация : Advanced Video Coding
Продолжительность : 54 м.
Битрейт : 1391 Кбит/сек
Максимальный битрейт : 2481 Кбит/сек
Ширина : 1280 пикселей
Высота : 720 пикселей
Соотношение сторон : 16:9
Режим частоты кадров : Постоянный
Частота кадров : 25,000 кадров/сек
Цветовое пространство : YUV
Субдискретизация насыщенности : 4:2:0
Битовая глубина : 8 бит
Тип развёртки : Прогрессивная
Бит/(Пиксели*Кадры) : 0.060
Размер потока : 544 Мбайт (90%)
Дата пометки : UTC 2012-06-29 19:03:55
Аудио
Идентификатор : 2
Формат : AAC
Формат/Информация : Advanced Audio Codec
Профиль формата : LC
Идентификатор кодека : 40
Продолжительность : 54 м.
Вид битрейта : Переменный
Битрейт : 152 Кбит/сек
Максимальный битрейт : 194 Кбит/сек
Каналы : 2 канала
Расположение каналов : Front: L R
Частота : 44,1 КГц
Метод сжатия : С потерями
Размер потока : 59,4 Мбайт (10%)
Заголовок : IsoMedia File Produced by Google, 5-11-2011
Дата кодирования : UTC 2012-06-29 19:03:54
Дата пометки : UTC 2012-06-29 19:03:55

Список серий

01. Каббалистическая психология № 01 (54:39)
02. Каббалистическая психология № 02 (55:47)
03. Каббалистическая психология № 03 (59:12)
04. Каббалистическая психология № 04 (56:35)
05. Каббалистическая психология № 05 (29:42)
06. Каббалистическая психология № 06 (69:32)
07. Каббалистическая психология № 07 (67:24)
08. Каббалистическая психология № 08 (59:34)
09. Каббалистическая психология № 09 (57:25)
10. Каббалистическая психология № 10 (29:40)
11. Каббалистическая психология № 11 (29:34)
12. Каббалистическая психология № 12 (29:48)
13. Каббалистическая психология № 13 (30:03)
14. Каббалистическая психология № 14 (29:13)
15. Каббалистическая психология № 15 (30:32)
16. Каббалистическая психология № 16 (29:53)
17. Каббалистическая психология № 17 (29:42)
18. Каббалистическая психология № 18 (29:40)
19. Каббалистическая психология № 19 (29:56)
20. Каббалистическая психология № 20 (29:25)
21. Каббалистическая психология № 21 (31:02)
22. Каббалистическая психология № 22 (58:42)
23. Каббалистическая психология № 23 (67:44)
24. Каббалистическая психология № 24 (67:41)
25. Каббалистическая психология № 25 (61:40)
26. Каббалистическая психология № 26 (60:43)
27. Каббалистическая психология № 27 (60:51)
28. Каббалистическая психология № 28 (61:57)
29. Каббалистическая психология № 29 (61:32)
[Profile]  [PM] 
Display posts:    
Reply to topic

Current time is: 04-Jun 10:57

All times are UTC + 2



You cannot post new topics in this forum
You cannot reply to topics in this forum
You cannot edit your posts in this forum
You cannot delete your posts in this forum
You cannot vote in polls in this forum
You cannot attach files in this forum
You cannot download files in this forum