Спроси каббалиста (серии 1-84 из 84) (Семён Винокур) [2009-2011, телепередача, WEB-DL Rip 720p]

Reply to topic
 
Author
Message

krasyarBB ®

Gender: Unknown

Longevity: 8 years 2 months

Posts: 32

Reputation: 0 [+] [-]

krasyarBB · Post 09-May-2013 16:32

[Quote] 

Спроси каббалиста / серии 1-84 из 84 -Год выпуска: 2009-2011
Страна: Россия, Израиль
Производство: Ari Films
Жанр: телепередача
Продолжительность: 42:16:16
Перевод: оригинал (русский язык)
Субтитры: нет-В ролях: Михаэль Лайтман, Михаил Санилевич
Режиссёр: Семён Винокур-Описание: Мы живем в постоянном поиске, стремимся найти правильные ответы на возникающие перед нами вопросы. Но, к сожалению, не всегда это удается. Иногда так хочется, чтобы рядом оказался мудрый человек, с которым можно посоветоваться.-Качество: WEB-DL Rip 720p
Формат: MP4
Видео кодек: MPEG-4 AVC (H.264)
Аудио кодек: AAC
Видео: 1280 x 720, 25,000 fps, ~ 1150 Kbps, ~ 0.050 bit/pixel
Аудио: 44,1 kHz, 2 (L,R) ch, ~ 150 kb/s
СЭМПЛ-Аудиоверсия телепередачи Спроси каббалиста / выпуски 1-84 из 84
-

Скриншоты

Расскадровка

MediaInfo

Общее
Полное имя : Sprosi_kabbalista\Cпроси каббалиста № 01.mp4
Формат : MPEG-4
Профиль формата : Base Media / Version 2
Идентификатор кодека : mp42
Размер файла : 269 Мбайт
Продолжительность : 29 м.
Режим общего битрейта : Переменный
Общий поток : 1294 Кбит/сек
Дата кодирования : UTC 2012-06-28 17:30:03
Дата пометки : UTC 2012-06-28 17:30:03
gsst : 0
gstd : 1745581
gssd : B4A7DDA63MH1341198831960719
gshh : o-o.preferred.fra07t11.v3.cache4.c.youtube.com
Видео
Идентификатор : 1
Формат : AVC
Формат/Информация : Advanced Video Codec
Профиль формата : High@L3.1
Параметр CABAC формата : Да
Параметр ReFrames формата : 1 кадр
Идентификатор кодека : avc1
Идентификатор кодека/Информация : Advanced Video Coding
Продолжительность : 29 м.
Битрейт : 1145 Кбит/сек
Максимальный битрейт : 3146 Кбит/сек
Ширина : 1280 пикселей
Высота : 720 пикселей
Соотношение сторон : 16:9
Режим частоты кадров : Постоянный
Частота кадров : 25,000 кадров/сек
Цветовое пространство : YUV
Субдискретизация насыщенности : 4:2:0
Битовая глубина : 8 бит
Тип развёртки : Прогрессивная
Бит/(Пиксели*Кадры) : 0.050
Размер потока : 238 Мбайт (88%)
Дата пометки : UTC 2012-06-28 17:30:08
Аудио
Идентификатор : 2
Формат : AAC
Формат/Информация : Advanced Audio Codec
Профиль формата : LC
Идентификатор кодека : 40
Продолжительность : 29 м.
Вид битрейта : Переменный
Битрейт : 144 Кбит/сек
Максимальный битрейт : 202 Кбит/сек
Каналы : 2 канала
Расположение каналов : Front: L R
Частота : 44,1 КГц
Метод сжатия : С потерями
Размер потока : 30,5 Мбайт (11%)
Заголовок : IsoMedia File Produced by Google, 5-11-2011
Дата кодирования : UTC 2012-06-28 17:30:05
Дата пометки : UTC 2012-06-28 17:30:08

Список серий

01. Cпроси каббалиста № 01 (29:05)
02. Cпроси каббалиста № 02 (30:45)
03. Cпроси каббалиста № 03 (29:26)
04. Cпроси каббалиста № 04 (29:49)
05. Cпроси каббалиста № 05 (28:50)
06. Cпроси каббалиста № 06 (29:55)
07. Cпроси каббалиста № 07 (31:33)
08. Cпроси каббалиста № 08 (30:30)
09. Cпроси каббалиста № 09 (29:19)
10. Cпроси каббалиста № 10 (29:21)
11. Cпроси каббалиста № 11 (29:08)
12. Cпроси каббалиста № 12 (34:38)
13. Cпроси каббалиста № 13 (30:01)
14. Cпроси каббалиста № 14 (28:30)
15. Cпроси каббалиста № 15 (28:14)
16. Cпроси каббалиста № 16 (27:17)
17. Cпроси каббалиста № 17 (29:45)
18. Cпроси каббалиста № 18 (29:13)
19. Cпроси каббалиста № 19 (25:46)
20. Cпроси каббалиста № 20 (31:07)
21. Cпроси каббалиста № 21 (26:47)
22. Cпроси каббалиста № 22 (27:25)
23. Cпроси каббалиста № 23 (27:34)
24. Cпроси каббалиста № 24 (28:30)
25. Cпроси каббалиста № 25 (27:27)
26. Cпроси каббалиста № 26 (29:30)
27. Cпроси каббалиста № 27 (28:47)
28. Cпроси каббалиста № 28 (28:00)
29. Cпроси каббалиста № 29 (31:18)
30. Cпроси каббалиста № 30 (27:15)
31. Cпроси каббалиста № 31 (28:42)
32. Cпроси каббалиста № 32 (27:56)
33. Cпроси каббалиста № 33 (27:52)
34. Cпроси каббалиста № 34 (60:31)
35. Cпроси каббалиста № 35 (35:42)
36. Cпроси каббалиста № 36 (28:54)
37. Cпроси каббалиста № 37 (26:29)
38. Cпроси каббалиста № 38 (29:06)
39. Cпроси каббалиста № 39 (29:45)
40. Cпроси каббалиста № 40 (28:55)
41. Cпроси каббалиста № 41 (27:50)
42. Cпроси каббалиста № 42 (29:10)
43. Cпроси каббалиста № 43 (29:25)
44. Cпроси каббалиста № 44 (28:34)
45. Cпроси каббалиста № 45 (29:55)
46. Cпроси каббалиста № 46 (28:46)
47. Cпроси каббалиста № 47 (30:14)
48. Cпроси каббалиста № 48 (29:38)
49. Cпроси каббалиста № 49 (28:43)
50. Cпроси каббалиста № 50 (30:12)
51. Cпроси каббалиста № 51 (29:25)
52. Cпроси каббалиста № 52 (29:44)
53. Cпроси каббалиста № 53 (29:09)
54. Cпроси каббалиста № 54 (27:12)
55. Cпроси каббалиста № 55 (28:32)
56. Cпроси каббалиста № 56 (29:24)
57. Cпроси каббалиста № 57 (27:50)
58. Cпроси каббалиста № 58 (28:39)
59. Cпроси каббалиста № 59 (28:16)
60. Cпроси каббалиста № 60 (29:03)
61. Cпроси каббалиста № 61 (29:10)
62. Cпроси каббалиста № 62 (29:20)
63. Cпроси каббалиста № 63 (28:32)
64. Cпроси каббалиста № 64 (29:07)
65. Cпроси каббалиста № 65 (29:07)
66. Cпроси каббалиста № 66 (28:01)
67. Cпроси каббалиста № 67 (29:13)
68. Cпроси каббалиста № 68 (27:50)
69. Cпроси каббалиста № 69 (28:25)
70. Cпроси каббалиста № 70 (30:05)
71. Cпроси каббалиста № 71 (29:11)
72. Cпроси каббалиста № 72 (29:56)
73. Cпроси каббалиста № 73 (29:43)
74. Cпроси каббалиста № 74 (33:25)
75. Cпроси каббалиста № 75 (31:53)
76. Cпроси каббалиста № 76 (30:28)
77. Cпроси каббалиста № 77 (30:30)
78. Cпроси каббалиста № 78 (29:41)
79. Cпроси каббалиста № 79 (30:46)
80. Cпроси каббалиста № 80 (31:10)
81. Cпроси каббалиста № 81 (29:33)
82. Cпроси каббалиста № 82 (31:38)
83. Cпроси каббалиста № 83 (29:37)
84. Cпроси каббалиста № 84 (71:00)
[Profile]  [PM] 
Display posts:    
Reply to topic

Current time is: 25-May 21:00

All times are UTC + 2



You cannot post new topics in this forum
You cannot reply to topics in this forum
You cannot edit your posts in this forum
You cannot delete your posts in this forum
You cannot vote in polls in this forum
You cannot attach files in this forum
You cannot download files in this forum