(Folk/Symphonic Black Metal) Nokturnal Mortum - Discography (1995-2011) (16 CD), FLAC (image+.cue), lossless

Reply to topic
 
Author
Message

Rogvald ®

Gender: Male

Longevity: 12 years

Posts: 836

Reputation: 1006 [+] [-]

Rogvald · Post 29-Sep-2013 00:40

[Quote] 

Nokturnal Mortum - Discography Жанр: Pagan/NS/Folk/Symphonic Black MetalСтрана: UkraineАудио кодек: FLACТип рипа: image+.cueБитрейт аудио: losslessИсточник: Original CD's

Информация

В данной дискографии, не считая переизданий, не хватает альбомов:
Eleven Years Among The Sheep (Best of) 2004
Live In Katowice (Live) 2009
Все остальные альбомы, синглы и демо, в том или ином виде присутствуют на CD, вошедших в дискографию.
Подробнее:
Twilightfall (demo 1995) – В оригинале выпущено на кассете в 1995 г. В дискографию включено переиздание 2003 г. Oriana.
Black Clouds Over Slavonic Lands (demo 1996) – Выпущено на кассете в 1996 г. В дискографии добавлено бонусом на CD Lunar Poetry (переиздание 2004 г. Oriana.)
Lunar Poetry (demo 1996) – Выпущено на кассете в 1996 году. На CD переиздавалось в 2001 году The End Records (добавлен бонус трек Return of The Vampire Lord, имеющийся в дискографии на одноименном ЕР), и в 2009 году на No Colours records в формате А5 диджибук. В дискографии представлено переиздание 2004 года Oriana, с добавленным перезаписанным демо Black Clouds Over Slavonic Lands.
Path Of Wolf/Return Of The Vampire Lord – сплит с Lucifugum выпущен на кассете в 1997 году. На СD не издавался.
Return Of The Vampire Lord/Marble Moon – 2 два кассетных ЕР 1997 года. Изданы на CD в 2001 г. на Oriana Prod. В дискографию включено переиздание 2003 года Oriana. дополненное двумя каверами: Burzum и Graveland.
Goat Horns – Выпущен на каасете в 1997 г. В дискографии представлен в 2-х видах: переиздание 1998 г. The End rec. и переиздание 2004 г. Oriana с бонус-треком Wild Child (WASP cover). Существует также еще одно CD переиздание 1998 г., выпускавшееся на Radiation rec., ничем не отличающееся от американского издания.
To The Gates Of Blasphemous Fire – Выпущен на кассете в1998 году.Существуют 2 одинаковых СD издания 1999 г. The End rec. и Nuclear Blast (Europe). В дискографию включено переиздание 2004 г. Oriana, с бонус треком South Of Heathen (Slayer cover).
Нехристь – Выпущен на кассете в 1999 г. В 2000 г. издавался на CD The End records и Last Episode records. В дискографии переиздание 2004 года Oriana, с бонус треком Deaf Forever (Motorhead cover).
The Taste Of Victory – ЕР 2004 года. Издан на Oriana. Существует также переиздание 2006 года.
Eleven Years Among The Ship – двойной сборник изданный в 2004 году на Unholy records. Включает в себя редкие, неизданные и живые треки. В дискографии отсутствует.
Мировоззрение/Weltenschauung – 2005 г. В дискографии представлен в 2-х вариантах: с английской и русской лирикой. No Colours records и Oriana соответственно. Существует также диджибучное издание Oriana Prod. в формате А5. Кроме коробки, отличий нет.
Молот Восточной Европы/Eastern Hammer – split 2007 года, с Graveland, North и Темнозорь. Издан на Hammerbolt records. В дискографии представлено российское издание, выпущенное Stellar Winter в 2008 году.
Live In Katovice – живой альбом выпущенный на No Colours records общим тиражом 349 экземпляров. В дискографии отсутствует.
Голос Сталі – альбом 2009 года. Oriana.
Коловорот - двойной концертный альбом 2011 года. Oriana.
Итог: в данной дискографии представлены наиболее расширенные версии номерных альбомов, синглов и демо издававшиеся на CD культовой украинской группой.
Хочу напомнить, что речь ведется только о СD изданиях, кассетные релизы и винил в расчет не принимались.
По мере поступления каких либо переизданий, либо появлении недостающих релизов, либо выпуске новых альбомов, дискография будет пополняться.
Все рипы сделаны мной с оригинальных CD из личной коллекции.
Все альбомы имеют полный комплект сканов, за исключением Goat Horns(издание Oriana), т.к. в нем буклет представляет собой плакат 50х60 см, который отсканировать невозможно.

Twilightfall - demo 1995 (Re-release 2003)

Nokturnal Mortum - Twilightfall
Жанр: Folk/Symphonic Black Metal
Год выпуска диска: 2003
Страна: Ukraine
Производитель диска:Oriana Music (Ukraine)
Источник: Original CD
Аудио кодек: FLAC
Тип рипа: image+.cue
Битрейт аудио: lossless
Продолжительность: 50:47
Трэклист:
1. The Unnothingles From Beyond 02:33
2. Autumn Opposition 09:53
3. Cry of Ukraina 07:12
4. Where Rivers Flow Into The Seas 03:10
5. Glass Coffin 07:06
6. On The Wings Of Scarlet Sunset 08:16
7. Oriana - Waterfall Of Twilight 01:06
8. Dark Flower Of Temptation 08:10
9. Tnematset Wen: Nocturnal Mortum 03:18

ЛОГ ЕАС

Exact Audio Copy V0.99 prebeta 5 from 4. May 2009
EAC extraction logfile from 10. March 2010, 19:31
Nokturnal Mortum / Twilightfall (Demo '95 Remaster)
Used drive : HL-DT-STDVD-RAM GH22NP20 Adapter: 0 ID: 0
Read mode : Secure
Utilize accurate stream : Yes
Defeat audio cache : Yes
Make use of C2 pointers : No
Read offset correction : 102
Overread into Lead-In and Lead-Out : No
Fill up missing offset samples with silence : Yes
Delete leading and trailing silent blocks : No
Null samples used in CRC calculations : Yes
Used interface : Native Win32 interface for Win NT & 2000
Used output format : User Defined Encoder
Selected bitrate : 128 kBit/s
Quality : High
Add ID3 tag : No
Command line compressor : C:\Program Files (x86)\FLAC\flac.exe
Additional command line options : ?8 ?V ?T "ARTIST=%a" ?T "TITLE=%t" ?T "ALBUM=%g" ?T "DATE=%y" ?T "TRACKNUMBER=%n" ?T "GENRE=%m" ?T "COMMENT=EAC FLAC ?8" %s
TOC of the extracted CD
Track | Start | Length | Start sector | End sector
---------------------------------------------------------
1 | 0:00.00 | 2:32.14 | 0 | 11413
2 | 2:32.14 | 9:55.17 | 11414 | 56055
3 | 12:27.31 | 7:12.06 | 56056 | 88461
4 | 19:39.37 | 3:10.52 | 88462 | 102763
5 | 22:50.14 | 7:06.06 | 102764 | 134719
6 | 29:56.20 | 8:15.47 | 134720 | 171891
7 | 38:11.67 | 1:06.51 | 171892 | 176892
8 | 39:18.43 | 8:10.34 | 176893 | 213676
9 | 47:29.02 | 3:18.25 | 213677 | 228551
Range status and errors
Selected range
Filename C:\Users\vvb05\Desktop\Аудио\Nokturnal Mortum - Twilightfall (Demo '95 Remaster).wav
Peak level 100.0 %
Range quality 99.9 %
Test CRC 79B286D7
Copy CRC 79B286D7
Copy OK
No errors occurred
AccurateRip summary
Track 1 accurately ripped (confidence 3) [AA4178C7]
Track 2 accurately ripped (confidence 3) [790D7128]
Track 3 accurately ripped (confidence 3) [5E5C7771]
Track 4 accurately ripped (confidence 3) [DA006E1C]
Track 5 accurately ripped (confidence 3) [D3457B26]
Track 6 accurately ripped (confidence 3) [19323455]
Track 7 accurately ripped (confidence 3) [D06D2943]
Track 8 accurately ripped (confidence 3) [33392C53]
Track 9 accurately ripped (confidence 3) [4393AEA0]
All tracks accurately ripped
End of status report

Lunar Poetry - demo 1996 (Re-release 2004)

Nokturnal Mortum - Lunar Poetry
Жанр: Folk/Symphonic Black Metal
Год выпуска диска: 2004
Страна: Ukraine
Производитель диска:Oriana Music (Ukraine)
Источник: Original CD
Аудио кодек: FLAC
Тип рипа: image+.cue
Битрейт аудио: lossless
Продолжительность: 62:32
Трэклист:
1. Tears Of Paganism 01:07
2. Lunar Poetry 04:52
3. Perun's Celestial Silver 07:08
4. Carpathian Mysteries 05:13
5. ...And Winter Becomes 04:52
6. Ancient Nation 05:10
7. The Grief Of Oriana 05:33
8. Sorrows Of The Moon (Celtic Frost cover) 03:46
9. Autodafe / Barbarian Dreams 07:53
10. Celestial Silver 06:21
11. Carpathia 03:39
12. My Nation 03:54
13. ...and Winter Becomes 02:06
Дополнительная информация:
Tracks 10 - 13 taken from rehersal demo
1995 "Black Clouds Over Slavonic Lands".

ЛОГ ЕАС

Exact Audio Copy V0.99 prebeta 5 from 4. May 2009
EAC extraction logfile from 10. March 2010, 20:21
Nocturnal Mortum / Lunar Poetry
Used drive : HL-DT-STDVD-RAM GH22NP20 Adapter: 0 ID: 0
Read mode : Secure
Utilize accurate stream : Yes
Defeat audio cache : Yes
Make use of C2 pointers : No
Read offset correction : 102
Overread into Lead-In and Lead-Out : No
Fill up missing offset samples with silence : Yes
Delete leading and trailing silent blocks : No
Null samples used in CRC calculations : Yes
Used interface : Native Win32 interface for Win NT & 2000
Used output format : User Defined Encoder
Selected bitrate : 128 kBit/s
Quality : High
Add ID3 tag : No
Command line compressor : C:\Program Files (x86)\FLAC\flac.exe
Additional command line options : ?8 ?V ?T "ARTIST=%a" ?T "TITLE=%t" ?T "ALBUM=%g" ?T "DATE=%y" ?T "TRACKNUMBER=%n" ?T "GENRE=%m" ?T "COMMENT=EAC FLAC ?8" %s
TOC of the extracted CD
Track | Start | Length | Start sector | End sector
---------------------------------------------------------
1 | 0:00.00 | 1:08.24 | 0 | 5123
2 | 1:08.24 | 4:52.09 | 5124 | 27032
3 | 6:00.33 | 7:08.42 | 27033 | 59174
4 | 13:09.00 | 5:13.02 | 59175 | 82651
5 | 18:22.02 | 4:54.39 | 82652 | 104740
6 | 23:16.41 | 5:12.21 | 104741 | 128161
7 | 28:28.62 | 5:33.45 | 128162 | 153181
8 | 34:02.32 | 3:46.63 | 153182 | 170194
9 | 37:49.20 | 7:51.00 | 170195 | 205519
10 | 45:40.20 | 6:20.58 | 205520 | 234077
11 | 52:01.03 | 3:39.49 | 234078 | 250551
12 | 55:40.52 | 3:55.58 | 250552 | 268234
13 | 59:36.35 | 2:55.56 | 268235 | 281415
Range status and errors
Selected range
Filename C:\Users\vvb05\Desktop\Аудио\Nocturnal Mortum - Lunar Poetry.wav
Peak level 100.0 %
Range quality 100.0 %
Test CRC 8B00E808
Copy CRC 8B00E808
Copy OK
No errors occurred
AccurateRip summary
Track 1 cannot be verified as accurate (confidence 2) [A2D42A5B], AccurateRip returned [B4768549]
Track 2 cannot be verified as accurate (confidence 2) [5E1DFE73], AccurateRip returned [B6B0416A]
Track 3 cannot be verified as accurate (confidence 2) [55472658], AccurateRip returned [69541BB1]
Track 4 cannot be verified as accurate (confidence 2) [46FC3655], AccurateRip returned [FCCA1E9B]
Track 5 cannot be verified as accurate (confidence 2) [5ED0B0DE], AccurateRip returned [E6779751]
Track 6 cannot be verified as accurate (confidence 2) [02209EC7], AccurateRip returned [FBB50123]
Track 7 cannot be verified as accurate (confidence 2) [A3F93829], AccurateRip returned [5481776E]
Track 8 cannot be verified as accurate (confidence 2) [6980BB2F], AccurateRip returned [2A0FD5A6]
Track 9 cannot be verified as accurate (confidence 2) [D341D86F], AccurateRip returned [C74E0D00]
Track 10 cannot be verified as accurate (confidence 2) [7DCDF872], AccurateRip returned [694FDAF2]
Track 11 cannot be verified as accurate (confidence 2) [D84BC566], AccurateRip returned [F427F6B5]
Track 12 cannot be verified as accurate (confidence 2) [D75BDC86], AccurateRip returned [AD510A78]
Track 13 cannot be verified as accurate (confidence 2) [95FF8676], AccurateRip returned [E29CDF91]
No tracks could be verified as accurate
You may have a different pressing from the one(s) in the database
End of status report

Return Of The Vampire Lord/Marble Moon - EP 1997 (Re-release 2003)

Nokturnal Mortum - Return Of The Vampire Lord / Marble Moon
Жанр: Folk/Symphonic Black Metal
Год выпуска диска: 2003
Страна: Ukraine
Производитель диска:Oriana Music (Ukraine)
Источник: Original CD
Аудио кодек: FLAC
Тип рипа: image+.cue
Битрейт аудио: lossless
Продолжительность: 60:34
Трэклист:
Part one
1. Return of the Vampire Lord 11:32
2. Mi Agama Khaz Mifisto 05:14
3. Cristaline Darkness 04:29
Part two
4. Intro/Hymn of Our Fatherland 02:33
5. On the Moonlight Path (Demo Version) 05:33
6. Через Рiчку, Через Гай (Instrumental Version) 01:12
7. Family Vault (Cover Of Death SS) 04:38
8. Черемош (Demo Version) 06:26
9. Через Рiчку, Через Гай (Ластiвка) 02:40
Part three
10. My Journey to the Stars (Cover Of Burzum) 07:41
11. Turisaz (Cover Of Graveland) 08:26
Дополнительная информация:
Part one - Return Of The Vampire Lord EP
Part two - Marble Moon EP

ЛОГ ЕАС

Exact Audio Copy V0.99 prebeta 5 from 4. May 2009
EAC extraction logfile from 10. March 2010, 23:01
Nokturnal Mortum / Return Of The Vampire Lord & Marble Moon
Used drive : HL-DT-STDVD-RAM GH22NP20 Adapter: 0 ID: 0
Read mode : Secure
Utilize accurate stream : Yes
Defeat audio cache : Yes
Make use of C2 pointers : No
Read offset correction : 102
Overread into Lead-In and Lead-Out : No
Fill up missing offset samples with silence : Yes
Delete leading and trailing silent blocks : No
Null samples used in CRC calculations : Yes
Used interface : Native Win32 interface for Win NT & 2000
Used output format : User Defined Encoder
Selected bitrate : 128 kBit/s
Quality : High
Add ID3 tag : No
Command line compressor : C:\Program Files (x86)\FLAC\flac.exe
Additional command line options : ?8 ?V ?T "ARTIST=%a" ?T "TITLE=%t" ?T "ALBUM=%g" ?T "DATE=%y" ?T "TRACKNUMBER=%n" ?T "GENRE=%m" ?T "COMMENT=EAC FLAC ?8" %s
TOC of the extracted CD
Track | Start | Length | Start sector | End sector
---------------------------------------------------------
1 | 0:00.00 | 11:33.23 | 0 | 51997
2 | 11:33.23 | 5:14.66 | 51998 | 75613
3 | 16:48.14 | 4:30.11 | 75614 | 95874
4 | 21:18.25 | 2:33.42 | 95875 | 107391
5 | 23:51.67 | 5:33.61 | 107392 | 132427
6 | 29:25.53 | 1:12.22 | 132428 | 137849
7 | 30:38.00 | 4:38.41 | 137850 | 158740
8 | 35:16.41 | 6:27.32 | 158741 | 187797
9 | 41:43.73 | 2:40.51 | 187798 | 199848
10 | 44:24.49 | 7:42.15 | 199849 | 234513
11 | 52:06.64 | 8:27.43 | 234514 | 272581
Range status and errors
Selected range
Filename C:\Users\vvb05\Desktop\Аудио\Nokturnal Mortum - Return Of The Vampire Lord & Marble Moon.wav
Peak level 97.3 %
Range quality 99.9 %
Test CRC DCE8CE31
Copy CRC DCE8CE31
Copy OK
No errors occurred
AccurateRip summary
Track 1 accurately ripped (confidence 3) [3F630CAA]
Track 2 accurately ripped (confidence 3) [06A2928E]
Track 3 accurately ripped (confidence 3) [05C440F4]
Track 4 accurately ripped (confidence 3) [E9F9D7D4]
Track 5 accurately ripped (confidence 3) [59E89D3B]
Track 6 accurately ripped (confidence 3) [97D1EA93]
Track 7 accurately ripped (confidence 3) [1A4F41BF]
Track 8 accurately ripped (confidence 3) [2729B324]
Track 9 accurately ripped (confidence 3) [3153FCC3]
Track 10 accurately ripped (confidence 3) [97E88A71]
Track 11 accurately ripped (confidence 3) [8D1F89CC]
All tracks accurately ripped
End of status report

Goat Horns - 1997 (Re-release 1998)

Nokturnal Mortum - Goat Horns
Жанр: Folk/Symphonic Black Metal
Год выпуска диска: 1998
Страна: Ukraine
Производитель диска:The End Records (USA)
Источник: Original CD
Аудио кодек: FLAC
Тип рипа: image+.cue
Битрейт аудио: lossless
Продолжительность: 51:46
Трэклист:
1. Black Moon Overture 04:47
2. Kuyaviya 07:02
3. Goat Horns 09:04
4. Unholy Orathania 08:07
5. Veles' Scrolls 11:47
6. Kolyada 07:08
7. Eternal Circle 03:50

ЛОГ ЕАС

Exact Audio Copy V0.99 prebeta 5 from 4. May 2009
EAC extraction logfile from 10. March 2010, 21:52
Nokturnal Mortum / Goat Horns
Used drive : HL-DT-STDVD-RAM GH22NP20 Adapter: 0 ID: 0
Read mode : Secure
Utilize accurate stream : Yes
Defeat audio cache : Yes
Make use of C2 pointers : No
Read offset correction : 102
Overread into Lead-In and Lead-Out : No
Fill up missing offset samples with silence : Yes
Delete leading and trailing silent blocks : No
Null samples used in CRC calculations : Yes
Used interface : Native Win32 interface for Win NT & 2000
Used output format : User Defined Encoder
Selected bitrate : 128 kBit/s
Quality : High
Add ID3 tag : No
Command line compressor : C:\Program Files (x86)\FLAC\flac.exe
Additional command line options : ?8 ?V ?T "ARTIST=%a" ?T "TITLE=%t" ?T "ALBUM=%g" ?T "DATE=%y" ?T "TRACKNUMBER=%n" ?T "GENRE=%m" ?T "COMMENT=EAC FLAC ?8" %s
TOC of the extracted CD
Track | Start | Length | Start sector | End sector
---------------------------------------------------------
1 | 0:00.60 | 4:46.27 | 60 | 21536
2 | 4:47.12 | 7:02.21 | 21537 | 53207
3 | 11:49.33 | 9:05.27 | 53208 | 94109
4 | 20:54.60 | 8:05.39 | 94110 | 130523
5 | 29:00.24 | 11:46.65 | 130524 | 183538
6 | 40:47.14 | 7:08.20 | 183539 | 215658
7 | 47:55.34 | 3:50.33 | 215659 | 232941
Range status and errors
Selected range
Filename C:\Users\vvb05\Desktop\Аудио\Nokturnal Mortum - Goat Horns.wav
Peak level 100.0 %
Range quality 100.0 %
Test CRC 1E174EB4
Copy CRC 1E174EB4
Copy OK
No errors occurred
AccurateRip summary
Track 1 cannot be verified as accurate (confidence 3) [A322DD18], AccurateRip returned [36E502F0]
Track 2 cannot be verified as accurate (confidence 3) [535E6CAC], AccurateRip returned [1ACA50A3]
Track 3 cannot be verified as accurate (confidence 3) [4D1C0547], AccurateRip returned [E53C092E]
Track 4 cannot be verified as accurate (confidence 3) [301E4094], AccurateRip returned [3AA53421]
Track 5 cannot be verified as accurate (confidence 3) [E942327E], AccurateRip returned [51F8A3B9]
Track 6 cannot be verified as accurate (confidence 3) [4418D1D5], AccurateRip returned [89DCB6C4]
Track 7 cannot be verified as accurate (confidence 3) [2A8D35F0], AccurateRip returned [1536C7C0]
No tracks could be verified as accurate
You may have a different pressing from the one(s) in the database
End of status report

Goat Horns - 1997 (Re-release 2004)

Nokturnal Mortum - Goat Horns
Жанр: Folk/Symphonic Black Metal
Год выпуска диска: 2004
Страна: Ukraine
Производитель диска:Oriana Music (Ukraine)
Источник: Original CD
Аудио кодек: FLAC
Тип рипа: image+.cue
Битрейт аудио: lossless
Продолжительность: 57:14
Трэклист:
1. Black Moon Overture 04:47
2. Kuyaviya 07:02
3. Goat Horns 09:04
4. Unholy Orathania 08:07
5. Veles' Scrolls 11:47
6. Kolyada 07:08
7. Eternal Circle 03:50
8. Wild Child (W.A.S.P. cover) 6:32

ЛОГ ЕАС

Exact Audio Copy V0.99 prebeta 5 from 4. May 2009
EAC extraction logfile from 10. March 2010, 21:09
Nokturnal Mortum / Goat Horns [re-release]
Used drive : HL-DT-STDVD-RAM GH22NP20 Adapter: 0 ID: 0
Read mode : Secure
Utilize accurate stream : Yes
Defeat audio cache : Yes
Make use of C2 pointers : No
Read offset correction : 102
Overread into Lead-In and Lead-Out : No
Fill up missing offset samples with silence : Yes
Delete leading and trailing silent blocks : No
Null samples used in CRC calculations : Yes
Used interface : Native Win32 interface for Win NT & 2000
Used output format : User Defined Encoder
Selected bitrate : 128 kBit/s
Quality : High
Add ID3 tag : No
Command line compressor : C:\Program Files (x86)\FLAC\flac.exe
Additional command line options : ?8 ?V ?T "ARTIST=%a" ?T "TITLE=%t" ?T "ALBUM=%g" ?T "DATE=%y" ?T "TRACKNUMBER=%n" ?T "GENRE=%m" ?T "COMMENT=EAC FLAC ?8" %s
TOC of the extracted CD
Track | Start | Length | Start sector | End sector
---------------------------------------------------------
1 | 0:00.00 | 4:48.27 | 0 | 21626
2 | 4:48.27 | 7:02.38 | 21627 | 53314
3 | 11:50.65 | 9:05.43 | 53315 | 94232
4 | 20:56.33 | 8:05.53 | 94233 | 130660
5 | 29:02.11 | 11:47.07 | 130661 | 183692
6 | 40:49.18 | 7:07.37 | 183693 | 215754
7 | 47:56.55 | 3:48.34 | 215755 | 232888
8 | 51:45.14 | 5:29.00 | 232889 | 257563
Range status and errors
Selected range
Filename C:\Users\vvb05\Desktop\Аудио\Nokturnal Mortum - Goat Horns [re-release].wav
Peak level 100.0 %
Range quality 99.9 %
Test CRC D0A9AF96
Copy CRC D0A9AF96
Copy OK
No errors occurred
AccurateRip summary
Track 1 accurately ripped (confidence 4) [5E8811C7]
Track 2 accurately ripped (confidence 4) [F16ED229]
Track 3 accurately ripped (confidence 4) [0FFC5F66]
Track 4 accurately ripped (confidence 4) [76C10AD9]
Track 5 accurately ripped (confidence 4) [A9F14431]
Track 6 accurately ripped (confidence 4) [308AEED6]
Track 7 accurately ripped (confidence 4) [9406DDB3]
Track 8 accurately ripped (confidence 4) [DC3B97D9]
All tracks accurately ripped
End of status report

To The Gates Of Blasphemous Fire - 1997 (Re-release 2004)

Nokturnal Mortum - To The Gates Of Blasphemous Fire
Жанр: Folk/Symphonic Black Metal
Год выпуска диска: 2004
Страна: Ukraine
Производитель диска:Oriana Music (Ukraine)
Источник: Original CD
Аудио кодек: FLAC
Тип рипа: image+.cue
Битрейт аудио: lossless
Продолжительность: 53:24
Трэклист:
1. Bestial Summoning 05:59
2. To The Gates Of Blasphemous Fire 05:26
3. On The Moonlight Path 05:24
4. The Hands Of Chaos 05:09
5. Under The Banners Of The Horned Knjaz 05:57
6. The 13th Asbath Celebration 08:30
7. Cheremosh 06:06
8. The Forgotten Ages Of Victories 06:54
9. South Of Heathen (Slayer cover) 03:57

ЛОГ ЕАС

Exact Audio Copy V0.99 prebeta 5 from 4. May 2009
EAC extraction logfile from 10. March 2010, 23:44
Nokturnal Mortum / To The Gates of Blasphemous Fire (Re-Release)
Used drive : HL-DT-STDVD-RAM GH22NP20 Adapter: 0 ID: 0
Read mode : Secure
Utilize accurate stream : Yes
Defeat audio cache : Yes
Make use of C2 pointers : No
Read offset correction : 102
Overread into Lead-In and Lead-Out : No
Fill up missing offset samples with silence : Yes
Delete leading and trailing silent blocks : No
Null samples used in CRC calculations : Yes
Used interface : Native Win32 interface for Win NT & 2000
Used output format : User Defined Encoder
Selected bitrate : 128 kBit/s
Quality : High
Add ID3 tag : No
Command line compressor : C:\Program Files (x86)\FLAC\flac.exe
Additional command line options : ?8 ?V ?T "ARTIST=%a" ?T "TITLE=%t" ?T "ALBUM=%g" ?T "DATE=%y" ?T "TRACKNUMBER=%n" ?T "GENRE=%m" ?T "COMMENT=EAC FLAC ?8" %s
TOC of the extracted CD
Track | Start | Length | Start sector | End sector
---------------------------------------------------------
1 | 0:00.00 | 5:59.02 | 0 | 26926
2 | 5:59.02 | 5:26.39 | 26927 | 51415
3 | 11:25.41 | 5:23.46 | 51416 | 75686
4 | 16:49.12 | 5:09.10 | 75687 | 98871
5 | 21:58.22 | 5:56.56 | 98872 | 125627
6 | 27:55.03 | 8:30.08 | 125628 | 163885
7 | 36:25.11 | 6:07.08 | 163886 | 191418
8 | 42:32.19 | 6:51.49 | 191419 | 222292
9 | 49:23.68 | 4:00.40 | 222293 | 240332
Range status and errors
Selected range
Filename C:\Users\vvb05\Desktop\Аудио\Nokturnal Mortum - To The Gates of Blasphemous Fire (Re-Release).wav
Peak level 99.9 %
Range quality 99.9 %
Test CRC 5A840916
Copy CRC 5A840916
Copy OK
No errors occurred
AccurateRip summary
Track 1 accurately ripped (confidence 3) [D36CC643]
Track 2 accurately ripped (confidence 3) [342A5C6B]
Track 3 accurately ripped (confidence 3) [73B0FB32]
Track 4 accurately ripped (confidence 3) [508C22D1]
Track 5 accurately ripped (confidence 3) [B496E82B]
Track 6 accurately ripped (confidence 3) [A197B4FD]
Track 7 accurately ripped (confidence 3) [28D12024]
Track 8 accurately ripped (confidence 3) [7AC82672]
Track 9 accurately ripped (confidence 3) [7C24388C]
All tracks accurately ripped
End of status report

Нехристь - 1999 (Re-release 2004)

Nokturnal Mortum - Нехристь
Жанр: Folk/Symphonic Black Metal
Год выпуска диска: 2004
Страна: Ukraine
Производитель диска:Oriana Music (Ukraine)
Источник: Original CD
Аудио кодек: FLAC
Тип рипа: image+.cue
Битрейт аудио: lossless
Продолжительность: 75:55
Трэклист:
1. The Funeral Wind Born in Oriana 06:35
2. Night Before the Fight 06:34
3. Черный Ворон 08:10
4. The Call of Aryan Spirit 05:54
5. Дитя Болот и Полнолуния 05:35
6. Death Damnation 05:32
7. В Огне Деревянных Церквей 07:08
8. Jesus' Blood 06:09
9. Нехристь: Танец Мечей 06:32
10. Небесное Серебро Перуна 08:21
11. Deaf Forever (Motorhead cover) 03:05
Дополнительная информация:
CD version contains 88 tracks - the first 9 tracks are followed by 78 tracks of
nature sounds. Perun's Celestial Silver is track 88, which originally appeared
on the "Lunar Poetry" demo.

ЛОГ ЕАС

Exact Audio Copy V0.99 prebeta 5 from 4. May 2009
EAC extraction logfile from 11. March 2010, 0:40
Nokturnal Mortum / Нехристь
Used drive : HL-DT-STDVD-RAM GH22NP20 Adapter: 0 ID: 0
Read mode : Secure
Utilize accurate stream : Yes
Defeat audio cache : Yes
Make use of C2 pointers : No
Read offset correction : 102
Overread into Lead-In and Lead-Out : No
Fill up missing offset samples with silence : Yes
Delete leading and trailing silent blocks : No
Null samples used in CRC calculations : Yes
Used interface : Native Win32 interface for Win NT & 2000
Used output format : User Defined Encoder
Selected bitrate : 128 kBit/s
Quality : High
Add ID3 tag : No
Command line compressor : C:\Program Files (x86)\FLAC\flac.exe
Additional command line options : ?8 ?V ?T "ARTIST=%a" ?T "TITLE=%t" ?T "ALBUM=%g" ?T "DATE=%y" ?T "TRACKNUMBER=%n" ?T "GENRE=%m" ?T "COMMENT=EAC FLAC ?8" %s
TOC of the extracted CD
Track | Start | Length | Start sector | End sector
---------------------------------------------------------
1 | 0:00.00 | 6:36.13 | 0 | 29712
2 | 6:36.13 | 6:35.65 | 29713 | 59402
3 | 13:12.03 | 8:10.14 | 59403 | 96166
4 | 21:22.17 | 5:56.40 | 96167 | 122906
5 | 27:18.57 | 5:38.67 | 122907 | 148323
6 | 32:57.49 | 5:35.12 | 148324 | 173460
7 | 38:32.61 | 7:11.37 | 173461 | 205822
8 | 45:44.23 | 6:11.46 | 205823 | 233693
9 | 51:55.69 | 6:31.18 | 233694 | 263036
10 | 58:27.12 | 0:04.08 | 263037 | 263344
11 | 58:31.20 | 0:04.06 | 263345 | 263650
12 | 58:35.26 | 0:04.10 | 263651 | 263960
13 | 58:39.36 | 0:04.04 | 263961 | 264264
14 | 58:43.40 | 0:04.06 | 264265 | 264570
15 | 58:47.46 | 0:04.04 | 264571 | 264874
16 | 58:51.50 | 0:04.03 | 264875 | 265177
17 | 58:55.53 | 0:04.02 | 265178 | 265479
18 | 58:59.55 | 0:04.04 | 265480 | 265783
19 | 59:03.59 | 0:04.02 | 265784 | 266085
20 | 59:07.61 | 0:04.04 | 266086 | 266389
21 | 59:11.65 | 0:04.12 | 266390 | 266701
22 | 59:16.02 | 0:04.04 | 266702 | 267005
23 | 59:20.06 | 0:04.03 | 267006 | 267308
24 | 59:24.09 | 0:04.06 | 267309 | 267614
25 | 59:28.15 | 0:04.02 | 267615 | 267916
26 | 59:32.17 | 0:04.06 | 267917 | 268222
27 | 59:36.23 | 0:04.02 | 268223 | 268524
28 | 59:40.25 | 0:04.04 | 268525 | 268828
29 | 59:44.29 | 0:04.05 | 268829 | 269133
30 | 59:48.34 | 0:04.06 | 269134 | 269439
31 | 59:52.40 | 0:04.05 | 269440 | 269744
32 | 59:56.45 | 0:04.02 | 269745 | 270046
33 | 60:00.47 | 0:04.08 | 270047 | 270354
34 | 60:04.55 | 0:04.01 | 270355 | 270655
35 | 60:08.56 | 0:04.03 | 270656 | 270958
36 | 60:12.59 | 0:04.07 | 270959 | 271265
37 | 60:16.66 | 0:04.02 | 271266 | 271567
38 | 60:20.68 | 0:04.04 | 271568 | 271871
39 | 60:24.72 | 0:04.06 | 271872 | 272177
40 | 60:29.03 | 0:04.03 | 272178 | 272480
41 | 60:33.06 | 0:04.08 | 272481 | 272788
42 | 60:37.14 | 0:04.14 | 272789 | 273102
43 | 60:41.28 | 0:04.18 | 273103 | 273420
44 | 60:45.46 | 0:04.10 | 273421 | 273730
45 | 60:49.56 | 0:04.08 | 273731 | 274038
46 | 60:53.64 | 0:04.05 | 274039 | 274343
47 | 60:57.69 | 0:04.01 | 274344 | 274644
48 | 61:01.70 | 0:04.06 | 274645 | 274950
49 | 61:06.01 | 0:04.04 | 274951 | 275254
50 | 61:10.05 | 0:04.02 | 275255 | 275556
51 | 61:14.07 | 0:04.02 | 275557 | 275858
52 | 61:18.09 | 0:04.01 | 275859 | 276159
53 | 61:22.10 | 0:04.06 | 276160 | 276465
54 | 61:26.16 | 0:04.06 | 276466 | 276771
55 | 61:30.22 | 0:04.12 | 276772 | 277083
56 | 61:34.34 | 0:04.14 | 277084 | 277397
57 | 61:38.48 | 0:04.08 | 277398 | 277705
58 | 61:42.56 | 0:04.32 | 277706 | 278037
59 | 61:47.13 | 0:04.06 | 278038 | 278343
60 | 61:51.19 | 0:04.12 | 278344 | 278655
61 | 61:55.31 | 0:04.08 | 278656 | 278963
62 | 61:59.39 | 0:04.10 | 278964 | 279273
63 | 62:03.49 | 0:04.08 | 279274 | 279581
64 | 62:07.57 | 0:04.12 | 279582 | 279893
65 | 62:11.69 | 0:04.08 | 279894 | 280201
66 | 62:16.02 | 0:04.06 | 280202 | 280507
67 | 62:20.08 | 0:04.09 | 280508 | 280816
68 | 62:24.17 | 0:04.09 | 280817 | 281125
69 | 62:28.26 | 0:04.08 | 281126 | 281433
70 | 62:32.34 | 0:04.01 | 281434 | 281734
71 | 62:36.35 | 0:04.02 | 281735 | 282036
72 | 62:40.37 | 0:04.02 | 282037 | 282338
73 | 62:44.39 | 0:04.04 | 282339 | 282642
74 | 62:48.43 | 0:04.05 | 282643 | 282947
75 | 62:52.48 | 0:04.02 | 282948 | 283249
76 | 62:56.50 | 0:04.04 | 283250 | 283553
77 | 63:00.54 | 0:04.01 | 283554 | 283854
78 | 63:04.55 | 0:04.09 | 283855 | 284163
79 | 63:08.64 | 0:04.04 | 284164 | 284467
80 | 63:12.68 | 0:04.11 | 284468 | 284778
81 | 63:17.04 | 0:04.12 | 284779 | 285090
82 | 63:21.16 | 0:04.02 | 285091 | 285392
83 | 63:25.18 | 0:04.05 | 285393 | 285697
84 | 63:29.23 | 0:04.14 | 285698 | 286011
85 | 63:33.37 | 0:04.01 | 286012 | 286312
86 | 63:37.38 | 0:04.01 | 286313 | 286613
87 | 63:41.39 | 8:19.00 | 286614 | 324038
88 | 72:00.39 | 3:54.41 | 324039 | 341629
Range status and errors
Selected range
Filename C:\Users\vvb05\Desktop\Аудио\Nokturnal Mortum - Нехристь.wav
Peak level 100.0 %
Range quality 100.0 %
Test CRC A5332B8C
Copy CRC A5332B8C
Copy OK
No errors occurred
AccurateRip summary
Track 1 accurately ripped (confidence 4) [0F89BB7D]
Track 2 accurately ripped (confidence 4) [F3862930]
Track 3 accurately ripped (confidence 4) [32C578F9]
Track 4 accurately ripped (confidence 4) [AF6A4BEC]
Track 5 accurately ripped (confidence 4) [4E63BEC3]
Track 6 accurately ripped (confidence 4) [C8E4DE16]
Track 7 accurately ripped (confidence 4) [3F6E7DEA]
Track 8 accurately ripped (confidence 4) [BAC90A8E]
Track 9 accurately ripped (confidence 4) [3AA44D8F]
Track 10 not present in database
Track 11 not present in database
Track 12 not present in database
Track 13 not present in database
Track 14 not present in database
Track 15 not present in database
Track 16 not present in database
Track 17 not present in database
Track 18 not present in database
Track 19 not present in database
Track 20 not present in database
Track 21 not present in database
Track 22 not present in database
Track 23 not present in database
Track 24 not present in database
Track 25 not present in database
Track 26 not present in database
Track 27 not present in database
Track 28 not present in database
Track 29 not present in database
Track 30 not present in database
Track 31 not present in database
Track 32 not present in database
Track 33 not present in database
Track 34 not present in database
Track 35 not present in database
Track 36 not present in database
Track 37 not present in database
Track 38 not present in database
Track 39 not present in database
Track 40 not present in database
Track 41 not present in database
Track 42 not present in database
Track 43 not present in database
Track 44 not present in database
Track 45 not present in database
Track 46 not present in database
Track 47 not present in database
Track 48 not present in database
Track 49 not present in database
Track 50 not present in database
Track 51 not present in database
Track 52 not present in database
Track 53 not present in database
Track 54 not present in database
Track 55 not present in database
Track 56 not present in database
Track 57 not present in database
Track 58 not present in database
Track 59 not present in database
Track 60 not present in database
Track 61 not present in database
Track 62 not present in database
Track 63 not present in database
Track 64 not present in database
Track 65 not present in database
Track 66 not present in database
Track 67 not present in database
Track 68 not present in database
Track 69 not present in database
Track 70 not present in database
Track 71 not present in database
Track 72 not present in database
Track 73 not present in database
Track 74 not present in database
Track 75 not present in database
Track 76 not present in database
Track 77 not present in database
Track 78 not present in database
Track 79 not present in database
Track 80 not present in database
Track 81 not present in database
Track 82 not present in database
Track 83 not present in database
Track 84 not present in database
Track 85 not present in database
Track 86 not present in database
Track 87 accurately ripped (confidence 4) [B6B9B621]
Track 88 accurately ripped (confidence 4) [A6DB0517]
11 track(s) accurately ripped
77 track(s) not present in the AccurateRip database
Some tracks could not be verified as accurate
End of status report

The Taste Of Victory - 2004 EP

Nokturnal Mortum - The Taste Of Victory
Жанр: Pagan/NS Black Metal
Год выпуска диска: 2004
Страна: Ukraine
Производитель диска:Oriana Music (Ukraine)
Источник: Original CD
Аудио кодек: FLAC
Тип рипа: image+.cue
Битрейт аудио: lossless
Продолжительность: 42:54
Трэклист:
1. Weltanschauung 08:36
2. The New Era of Swords 07:38
3. The Taste of Victory 11:41
4. As the Steel Eagle into Golden Svarga 14:51

ЛОГ ЕАС

Exact Audio Copy V0.99 prebeta 5 from 4. May 2009
EAC extraction logfile from 11. March 2010, 7:05
Nokturnal mortum / The taste of victory
Used drive : HL-DT-STDVD-RAM GH22NP20 Adapter: 0 ID: 0
Read mode : Secure
Utilize accurate stream : Yes
Defeat audio cache : Yes
Make use of C2 pointers : No
Read offset correction : 102
Overread into Lead-In and Lead-Out : No
Fill up missing offset samples with silence : Yes
Delete leading and trailing silent blocks : No
Null samples used in CRC calculations : Yes
Used interface : Native Win32 interface for Win NT & 2000
Used output format : User Defined Encoder
Selected bitrate : 128 kBit/s
Quality : High
Add ID3 tag : No
Command line compressor : C:\Program Files (x86)\FLAC\flac.exe
Additional command line options : ?8 ?V ?T "ARTIST=%a" ?T "TITLE=%t" ?T "ALBUM=%g" ?T "DATE=%y" ?T "TRACKNUMBER=%n" ?T "GENRE=%m" ?T "COMMENT=EAC FLAC ?8" %s
TOC of the extracted CD
Track | Start | Length | Start sector | End sector
---------------------------------------------------------
1 | 0:00.00 | 11:43.65 | 0 | 52789
2 | 11:43.65 | 8:38.23 | 52790 | 91662
3 | 20:22.13 | 7:40.31 | 91663 | 126193
4 | 28:02.44 | 14:51.22 | 126194 | 193040
Range status and errors
Selected range
Filename C:\Users\vvb05\Desktop\Аудио\Nokturnal mortum - The taste of victory.wav
Peak level 100.0 %
Range quality 100.0 %
Test CRC F5FDC085
Copy CRC F5FDC085
Copy OK
No errors occurred
AccurateRip summary
Track 1 not present in database
Track 2 not present in database
Track 3 not present in database
Track 4 not present in database
None of the tracks are present in the AccurateRip database
End of status report

Мировоззрение - 2005

Nokturnal Mortum - Мировоззрение
Жанр: Pagan/NS Black Metal
Год выпуска диска: 2005
Страна: Ukraine
Производитель диска:Oriana Music (Ukraine)
Источник: Original CD
Аудио кодек: FLAC
Тип рипа: image+.cue
Битрейт аудио: lossless
Продолжительность: 73:58
Трэклист:
1. Путь Бессмертных
2. Дыханье Рагнарека
3. Звездная Пыль
4. Мировоззрение
5. Печаль Родных Земель
6. Слава Героям
7. Танец Огня и Стали
8. Новая Эра Мечей
9. Бескрайние Топи
10. Нити Судьбоносной Узлы
11. Собирая Смерти Посев
12. Вкус Победы
13. Дорога Славы
14. Untitled

ЛОГ ЕАС

Exact Audio Copy V0.99 prebeta 5 from 4. May 2009
EAC extraction logfile from 11. March 2010, 18:51
Nokturnal Mortum / Мировоззрение
Used drive : HL-DT-STDVD-RAM GH22NP20 Adapter: 0 ID: 0
Read mode : Secure
Utilize accurate stream : Yes
Defeat audio cache : Yes
Make use of C2 pointers : No
Read offset correction : 102
Overread into Lead-In and Lead-Out : No
Fill up missing offset samples with silence : Yes
Delete leading and trailing silent blocks : No
Null samples used in CRC calculations : Yes
Used interface : Native Win32 interface for Win NT & 2000
Used output format : User Defined Encoder
Selected bitrate : 128 kBit/s
Quality : High
Add ID3 tag : No
Command line compressor : C:\Program Files (x86)\FLAC\flac.exe
Additional command line options : ?8 ?V ?T "ARTIST=%a" ?T "TITLE=%t" ?T "ALBUM=%g" ?T "DATE=%y" ?T "TRACKNUMBER=%n" ?T "GENRE=%m" ?T "COMMENT=EAC FLAC ?8" %s
TOC of the extracted CD
Track | Start | Length | Start sector | End sector
---------------------------------------------------------
1 | 0:00.00 | 2:27.40 | 0 | 11064
2 | 2:27.40 | 8:00.42 | 11065 | 47106
3 | 10:28.07 | 3:04.03 | 47107 | 60909
4 | 13:32.10 | 8:29.25 | 60910 | 99109
5 | 22:01.35 | 1:35.68 | 99110 | 106302
6 | 23:37.28 | 8:15.14 | 106303 | 143441
7 | 31:52.42 | 1:41.60 | 143442 | 151076
8 | 33:34.27 | 7:46.14 | 151077 | 186040
9 | 41:20.41 | 1:29.50 | 186041 | 192765
10 | 42:50.16 | 10:36.27 | 192766 | 240492
11 | 53:26.43 | 2:31.02 | 240493 | 251819
12 | 55:57.45 | 12:05.48 | 251820 | 306242
13 | 68:03.18 | 2:51.43 | 306243 | 319110
14 | 70:54.61 | 3:02.60 | 319111 | 332820
Range status and errors
Selected range
Filename C:\Users\vvb05\Desktop\Аудио\Nokturnal Mortum - Мировоззрение.wav
Peak level 100.0 %
Range quality 100.0 %
Test CRC A359EA8F
Copy CRC A359EA8F
Copy OK
No errors occurred
AccurateRip summary
Track 1 accurately ripped (confidence 2) [FA179174]
Track 2 accurately ripped (confidence 2) [12670FE2]
Track 3 accurately ripped (confidence 2) [7F47335F]
Track 4 accurately ripped (confidence 2) [DA13DB39]
Track 5 accurately ripped (confidence 2) [90E3BF1C]
Track 6 accurately ripped (confidence 2) [BCA17049]
Track 7 accurately ripped (confidence 2) [E3031335]
Track 8 accurately ripped (confidence 2) [F412D97E]
Track 9 accurately ripped (confidence 2) [7B72F580]
Track 10 accurately ripped (confidence 2) [11ED96DB]
Track 11 accurately ripped (confidence 2) [8652B2DD]
Track 12 accurately ripped (confidence 2) [F9EC9BAF]
Track 13 accurately ripped (confidence 2) [BC9E9671]
Track 14 accurately ripped (confidence 2) [A7A0CC84]
All tracks accurately ripped
End of status report

Weltanschauung - 2005

Nokturnal Mortum - Weltanschauung
Жанр: Pagan/NS Black Metal
Год выпуска диска: 2005
Страна: Ukraine
Производитель диска:No Colours records (Germany)
Источник: Original CD
Аудио кодек: FLAC
Тип рипа: image+.cue
Битрейт аудио: lossless
Продолжительность: 74:56
Трэклист:
1. The Path Of Immortals 02:26
2. I Feel The Breath Of Ragnarok 08:06
3. Stardust 02:27
4. Weltanschauung 08:32
5. Sorrow Of Native Lands 03:21
6. Hailed Be The Heroes 08:15
7. The Dance Of Fire And Steel 01:47
8. The New Era Of Swords 07:40
9. Endless Vast Swamps 01:29
10. The Knots Upon The Thread Of Fate 10:39
11. Harvesting The Seeds Of Death 01:52
12. The Taste Of Victory 12:24
13. The Way Of Glory 02:51
14. Untitled 03:00

ЛОГ ЕАС

Exact Audio Copy V0.99 prebeta 5 from 4. May 2009
EAC extraction logfile from 11. March 2010, 8:00
Nokturnal Mortum / Weltanschauung
Used drive : HL-DT-STDVD-RAM GH22NP20 Adapter: 0 ID: 0
Read mode : Secure
Utilize accurate stream : Yes
Defeat audio cache : Yes
Make use of C2 pointers : No
Read offset correction : 102
Overread into Lead-In and Lead-Out : No
Fill up missing offset samples with silence : Yes
Delete leading and trailing silent blocks : No
Null samples used in CRC calculations : Yes
Used interface : Native Win32 interface for Win NT & 2000
Used output format : User Defined Encoder
Selected bitrate : 128 kBit/s
Quality : High
Add ID3 tag : No
Command line compressor : C:\Program Files (x86)\FLAC\flac.exe
Additional command line options : ?8 ?V ?T "ARTIST=%a" ?T "TITLE=%t" ?T "ALBUM=%g" ?T "DATE=%y" ?T "TRACKNUMBER=%n" ?T "GENRE=%m" ?T "COMMENT=EAC FLAC ?8" %s
TOC of the extracted CD
Track | Start | Length | Start sector | End sector
---------------------------------------------------------
1 | 0:00.00 | 2:26.24 | 0 | 10973
2 | 2:26.24 | 8:06.27 | 10974 | 47450
3 | 10:32.51 | 2:27.27 | 47451 | 58502
4 | 13:00.03 | 8:32.58 | 58503 | 96960
5 | 21:32.61 | 3:21.66 | 96961 | 112101
6 | 24:54.52 | 8:15.21 | 112102 | 149247
7 | 33:09.73 | 1:47.28 | 149248 | 157300
8 | 34:57.26 | 7:40.46 | 157301 | 191846
9 | 42:37.72 | 1:29.43 | 191847 | 198564
10 | 44:07.40 | 10:39.44 | 198565 | 246533
11 | 54:47.09 | 1:51.74 | 246534 | 254932
12 | 56:39.08 | 12:24.36 | 254933 | 310768
13 | 69:03.44 | 2:51.11 | 310769 | 323604
14 | 71:54.55 | 3:00.62 | 323605 | 337166
Range status and errors
Selected range
Filename C:\Users\vvb05\Desktop\Аудио\Nokturnal Mortum - Weltanschauung.wav
Peak level 100.0 %
Range quality 100.0 %
Test CRC 9EB62358
Copy CRC 9EB62358
Copy OK
No errors occurred
AccurateRip summary
Track 1 accurately ripped (confidence 3) [4EA95C2F]
Track 2 accurately ripped (confidence 3) [7387A913]
Track 3 accurately ripped (confidence 3) [74FD0455]
Track 4 accurately ripped (confidence 3) [B0C61874]
Track 5 accurately ripped (confidence 3) [C78930EA]
Track 6 accurately ripped (confidence 3) [3B4FDF50]
Track 7 accurately ripped (confidence 3) [77C4345C]
Track 8 accurately ripped (confidence 3) [A44F644F]
Track 9 accurately ripped (confidence 3) [46CBA296]
Track 10 accurately ripped (confidence 3) [97A6CBA5]
Track 11 accurately ripped (confidence 3) [153A9FF2]
Track 12 accurately ripped (confidence 3) [A754F125]
Track 13 accurately ripped (confidence 3) [D73C14A9]
Track 14 accurately ripped (confidence 3) [1D651AAF]
All tracks accurately ripped
End of status report

Мировоззрение/Weltanschauung - 2005 (Remastered & remixed 2013)

Nokturnal Mortum - Мировоззрение/Weltanschauung
Жанр: Pagan/NS Black Metal
Год выпуска диска: 2013
Страна: Ukraine
Производитель диска:Oriana Music (Ukraine)
Источник: Original CD
Аудио кодек: FLAC
Тип рипа: image+.cue
Битрейт аудио: lossless
Продолжительность:
CD1: 70:53
CD2: 71:54
Трэклист:
Мировоззрение:
1. Путь Бессмертных
2. Дыханье Рагнарека
3. Звездная Пыль
4. Мировоззрение
5. Печаль Родных Земель
6. Слава Героям
7. Танец Огня и Стали
8. Новая Эра Мечей
9. Бескрайние Топи
10. Нити Судьбоносной Узлы
11. Собирая Смерти Посев
12. Вкус Победы
13. Дорога Славы
14. Untitled
Weltanschauung:
1. The Path of Immortals
2. I Feel the Breath of Ragnarok
3. Stardust
4. Weltanschauung
5. Sorrow of Native Lands
6. Hailed Be the Heroes
7. The Dance of Fire and Steel
8. The New Era of Swords
9. Endless Vast Swamps
10. The Knots upon the Thread of Fate
11. Harvesting the Seeds of Death
12. The Taste of Victory
13. The Way of Glory
14. Untitled

Дополнительная информация

Перемикширован и ремастирован только альбом Мировоззрение

ЛОГ ЕАС CD1

Exact Audio Copy V1.0 beta 3 from 29. August 2011
EAC extraction logfile from 12. September 2013, 20:47
Nokturnal Mortum / Мировоззрение
Used drive : ASUS DRW-24B3ST Adapter: 1 ID: 1
Read mode : Secure
Utilize accurate stream : Yes
Defeat audio cache : Yes
Make use of C2 pointers : No
Read offset correction : 6
Overread into Lead-In and Lead-Out : No
Fill up missing offset samples with silence : Yes
Delete leading and trailing silent blocks : No
Null samples used in CRC calculations : Yes
Used interface : Native Win32 interface for Win NT & 2000
Used output format : User Defined Encoder
Selected bitrate : 128 kBit/s
Quality : High
Add ID3 tag : No
Command line compressor : C:\Program Files\Exact Audio Copy\Flac\flac.exe
Additional command line options : -V -8 -T "Date=%year%" -T "Genre=%genre%" %source%
TOC of the extracted CD
Track | Start | Length | Start sector | End sector
---------------------------------------------------------
1 | 0:00.00 | 2:26.74 | 0 | 11023
2 | 2:26.74 | 8:01.00 | 11024 | 47098
3 | 10:27.74 | 3:03.36 | 47099 | 60859
4 | 13:31.35 | 8:26.51 | 60860 | 98860
5 | 21:58.11 | 1:38.36 | 98861 | 106246
6 | 23:36.47 | 8:15.09 | 106247 | 143380
7 | 31:51.56 | 1:41.71 | 143381 | 151026
8 | 33:33.52 | 7:45.49 | 151027 | 185950
9 | 41:19.26 | 1:30.02 | 185951 | 192702
10 | 42:49.28 | 10:41.44 | 192703 | 240821
11 | 53:30.72 | 2:30.25 | 240822 | 252096
12 | 56:01.22 | 11:48.72 | 252097 | 305268
13 | 67:50.19 | 3:03.50 | 305269 | 319043
14 | 70:53.69 | 3:04.10 | 319044 | 332853
Range status and errors
Selected range
Filename C:\Users\vvb05\Desktop\Audio\Nokturnal Mortum - Мировоззрение.wav
Peak level 100.0 %
Extraction speed 9.8 X
Range quality 100.0 %
Test CRC 56C2CB31
Copy CRC 56C2CB31
Copy OK
No errors occurred
AccurateRip summary
Track 1 not present in database
Track 2 not present in database
Track 3 not present in database
Track 4 not present in database
Track 5 not present in database
Track 6 not present in database
Track 7 not present in database
Track 8 not present in database
Track 9 not present in database
Track 10 not present in database
Track 11 not present in database
Track 12 not present in database
Track 13 not present in database
Track 14 not present in database
None of the tracks are present in the AccurateRip database
End of status report

ЛОГ ЕАС CD2

Exact Audio Copy V1.0 beta 3 from 29. August 2011
EAC extraction logfile from 12. September 2013, 21:14
Nokturnal Mortum / Weltanschauung
Used drive : ASUS DRW-24B3ST Adapter: 1 ID: 1
Read mode : Secure
Utilize accurate stream : Yes
Defeat audio cache : Yes
Make use of C2 pointers : No
Read offset correction : 6
Overread into Lead-In and Lead-Out : No
Fill up missing offset samples with silence : Yes
Delete leading and trailing silent blocks : No
Null samples used in CRC calculations : Yes
Used interface : Native Win32 interface for Win NT & 2000
Used output format : User Defined Encoder
Selected bitrate : 128 kBit/s
Quality : High
Add ID3 tag : No
Command line compressor : C:\Program Files\Exact Audio Copy\Flac\flac.exe
Additional command line options : -V -8 -T "Date=%year%" -T "Genre=%genre%" %source%
TOC of the extracted CD
Track | Start | Length | Start sector | End sector
---------------------------------------------------------
1 | 0:00.00 | 2:26.24 | 0 | 10973
2 | 2:26.24 | 8:06.27 | 10974 | 47450
3 | 10:32.51 | 2:27.27 | 47451 | 58502
4 | 13:00.03 | 8:32.58 | 58503 | 96960
5 | 21:32.61 | 3:21.66 | 96961 | 112101
6 | 24:54.52 | 8:15.21 | 112102 | 149247
7 | 33:09.73 | 1:47.28 | 149248 | 157300
8 | 34:57.26 | 7:40.46 | 157301 | 191846
9 | 42:37.72 | 1:29.43 | 191847 | 198564
10 | 44:07.40 | 10:39.44 | 198565 | 246533
11 | 54:47.09 | 1:51.74 | 246534 | 254932
12 | 56:39.08 | 12:24.36 | 254933 | 310768
13 | 69:03.44 | 2:51.11 | 310769 | 323604
14 | 71:54.55 | 3:00.62 | 323605 | 337166
Range status and errors
Selected range
Filename C:\Users\vvb05\Desktop\Audio\Nokturnal Mortum - Weltanschauung.wav
Peak level 100.0 %
Extraction speed 9.7 X
Range quality 100.0 %
Test CRC CE8F7996
Copy CRC CE8F7996
Copy OK
No errors occurred
AccurateRip summary
Track 1 cannot be verified as accurate (confidence 5) [9589E3F8], AccurateRip returned [4EA95C2F] (AR v2)
Track 2 cannot be verified as accurate (confidence 5) [4004B052], AccurateRip returned [7387A913] (AR v2)
Track 3 cannot be verified as accurate (confidence 5) [39D823A2], AccurateRip returned [74FD0455] (AR v2)
Track 4 cannot be verified as accurate (confidence 5) [14E8E0F4], AccurateRip returned [B0C61874] (AR v2)
Track 5 cannot be verified as accurate (confidence 5) [58BCBA90], AccurateRip returned [C78930EA] (AR v2)
Track 6 cannot be verified as accurate (confidence 5) [94CEB834], AccurateRip returned [3B4FDF50] (AR v2)
Track 7 cannot be verified as accurate (confidence 5) [F9800899], AccurateRip returned [77C4345C] (AR v2)
Track 8 cannot be verified as accurate (confidence 5) [A35404BE], AccurateRip returned [A44F644F] (AR v2)
Track 9 cannot be verified as accurate (confidence 5) [27FFFD8C], AccurateRip returned [46CBA296] (AR v2)
Track 10 cannot be verified as accurate (confidence 5) [74F46530], AccurateRip returned [97A6CBA5] (AR v2)
Track 11 cannot be verified as accurate (confidence 5) [1AB3BA41], AccurateRip returned [153A9FF2] (AR v2)
Track 12 cannot be verified as accurate (confidence 5) [3B4CA4B8], AccurateRip returned [A754F125] (AR v2)
Track 13 cannot be verified as accurate (confidence 5) [63154D0D], AccurateRip returned [D73C14A9] (AR v2)
Track 14 cannot be verified as accurate (confidence 5) [DC0E1FAC], AccurateRip returned [1D651AAF] (AR v2)
No tracks could be verified as accurate
You may have a different pressing from the one(s) in the database
End of status report

Молот Восточной Европы - 4 way split 2007 (Re-release 2008)

VA - Молот Восточной Европы
Жанр: Pagan/NS Black Metal
Год выпуска диска: 2008
Страна: Poland, Russia, Ukraine
Производитель диска:Stellar Winter (Russia)
Источник: Original CD
Аудио кодек: FLAC
Тип рипа: image+.cue
Битрейт аудио: lossless
Продолжительность: 28:25
Трэклист:
Graveland:
1. Blood Faithful to Soil 11:41
Nokturnal Mortum:
2. Колядо 05:44
North:
3. To Break a Cross, to Break a Neck 05:42
Temnozor:
4. Дид-Дуб-Сноп 05:16
Дополнительная информация:
CD limited to 999 copies

ЛОГ ЕАС

Exact Audio Copy V0.99 prebeta 5 from 4. May 2009
EAC extraction logfile from 11. March 2010, 1:15
Various artists / Молот Восточной Европы
Used drive : HL-DT-STDVD-RAM GH22NP20 Adapter: 0 ID: 0
Read mode : Secure
Utilize accurate stream : Yes
Defeat audio cache : Yes
Make use of C2 pointers : No
Read offset correction : 102
Overread into Lead-In and Lead-Out : No
Fill up missing offset samples with silence : Yes
Delete leading and trailing silent blocks : No
Null samples used in CRC calculations : Yes
Used interface : Native Win32 interface for Win NT & 2000
Used output format : User Defined Encoder
Selected bitrate : 128 kBit/s
Quality : High
Add ID3 tag : No
Command line compressor : C:\Program Files (x86)\FLAC\flac.exe
Additional command line options : ?8 ?V ?T "ARTIST=%a" ?T "TITLE=%t" ?T "ALBUM=%g" ?T "DATE=%y" ?T "TRACKNUMBER=%n" ?T "GENRE=%m" ?T "COMMENT=EAC FLAC ?8" %s
TOC of the extracted CD
Track | Start | Length | Start sector | End sector
---------------------------------------------------------
1 | 0:00.00 | 11:41.66 | 0 | 52640
2 | 11:41.66 | 5:44.38 | 52641 | 78478
3 | 17:26.29 | 5:42.56 | 78479 | 104184
4 | 23:09.10 | 5:15.73 | 104185 | 127882
Range status and errors
Selected range
Filename C:\Users\vvb05\Desktop\Аудио\Various artists - Молот Восточной Европы.wav
Peak level 100.0 %
Range quality 100.0 %
Test CRC 092D57CF
Copy CRC 092D57CF
Copy OK
No errors occurred
AccurateRip summary
Track 1 accurately ripped (confidence 2) [90FE7330]
Track 2 accurately ripped (confidence 2) [1E066A62]
Track 3 not present in database
Track 4 not present in database
2 track(s) accurately ripped
2 track(s) not present in the AccurateRip database
Some tracks could not be verified as accurate
End of status report

Голос Сталi - 2009

Nokturnal Mortum - Голос Сталi
Жанр: Pagan/NS Black Metal
Год выпуска диска: 2009
Страна: Ukraine
Производитель диска: Oriana Music (Ukraine)
Источник: Original CD
Аудио кодек: FLAC
Тип рипа: image+.cue
Битрейт аудио: lossless
Продолжительность: 69:46
Трэклист:
1. Інтро 03:06
2. Голос Сталі 09:55
3. Валькирия 10:48
4. Україна 08:24
5. Моєї Мрії Острови 11:48
6. Шляхом Сонця 09:07
7. Небо Сумних Ночей 04:51
8. Біла Вежа 11:48

ЛОГ ЕАС

Exact Audio Copy V0.99 prebeta 5 from 4. May 2009
EAC extraction logfile from 11. March 2010, 19:52
Nokturnal Mortum / The Voice of Steel
Used drive : HL-DT-STDVD-RAM GH22NP20 Adapter: 0 ID: 0
Read mode : Secure
Utilize accurate stream : Yes
Defeat audio cache : Yes
Make use of C2 pointers : No
Read offset correction : 102
Overread into Lead-In and Lead-Out : No
Fill up missing offset samples with silence : Yes
Delete leading and trailing silent blocks : No
Null samples used in CRC calculations : Yes
Used interface : Native Win32 interface for Win NT & 2000
Used output format : User Defined Encoder
Selected bitrate : 128 kBit/s
Quality : High
Add ID3 tag : No
Command line compressor : C:\Program Files (x86)\FLAC\flac.exe
Additional command line options : ?8 ?V ?T "ARTIST=%a" ?T "TITLE=%t" ?T "ALBUM=%g" ?T "DATE=%y" ?T "TRACKNUMBER=%n" ?T "GENRE=%m" ?T "COMMENT=EAC FLAC ?8" %s
TOC of the extracted CD
Track | Start | Length | Start sector | End sector
---------------------------------------------------------
1 | 0:00.00 | 3:05.68 | 0 | 13942
2 | 3:05.68 | 9:54.61 | 13943 | 58553
3 | 13:00.54 | 10:47.72 | 58554 | 107150
4 | 23:48.51 | 8:24.16 | 107151 | 144966
5 | 32:12.67 | 11:47.50 | 144967 | 198041
6 | 44:00.42 | 9:06.62 | 198042 | 239053
7 | 53:07.29 | 4:50.50 | 239054 | 260853
8 | 57:58.04 | 11:48.19 | 260854 | 313972
Range status and errors
Selected range
Filename C:\Users\vvb05\Desktop\Аудио\Nokturnal Mortum - The Voice of Steel.wav
Peak level 100.0 %
Range quality 99.9 %
Test CRC 29EEC5BE
Copy CRC 29EEC5BE
Copy OK
No errors occurred
AccurateRip summary
Track 1 not present in database
Track 2 not present in database
Track 3 not present in database
Track 4 not present in database
Track 5 not present in database
Track 6 not present in database
Track 7 not present in database
Track 8 not present in database
None of the tracks are present in the AccurateRip database
End of status report

Коловорот - live 2011

Nokturnal Mortum - Коловорот
Жанр: Pagan/NS Black Metal
Год выпуска диска: 2009
Страна: Ukraine
Производитель диска: Oriana Music (Ukraine)
Источник: Original CD
Аудио кодек: FLAC
Тип рипа: image+.cue
Битрейт аудио: lossless
Продолжительность:
СD1: 58:30
СD2: 62:38
Трэклист:
СD1:
1. Інтро
2. Голос Сталі
3. Валькирия
4. Україна
5. Біла Вежа
6. В Огне Деревянных Церквей
7. Небесное Серебро Перуна
СD2:
1. Black Moon Overture
2. Мировоззрение
3. Новая Эра Мечей
4. Слава Героям
5. Черный Ворон
6. Моєї Мрії Острови
7. Коляда
8. Небо Сумних Ночей Outro

ЛОГ ЕАС CD1

Exact Audio Copy V1.0 beta 3 from 29. August 2011
EAC extraction logfile from 26. December 2011, 21:21
Nokturnal Mortum / Kolovorot (CD1)
Used drive : ASUS DRW-24B3ST Adapter: 3 ID: 1
Read mode : Secure
Utilize accurate stream : Yes
Defeat audio cache : Yes
Make use of C2 pointers : No
Read offset correction : 6
Overread into Lead-In and Lead-Out : No
Fill up missing offset samples with silence : Yes
Delete leading and trailing silent blocks : No
Null samples used in CRC calculations : Yes
Used interface : Native Win32 interface for Win NT & 2000
Used output format : User Defined Encoder
Selected bitrate : 128 kBit/s
Quality : High
Add ID3 tag : No
Command line compressor : C:\Program Files\FLAC\flac.exe
Additional command line options : -V -8 -T "Date=%year%" -T "Genre=%genre%" %source%
TOC of the extracted CD
Track | Start | Length | Start sector | End sector
---------------------------------------------------------
1 | 0:00.00 | 3:17.06 | 0 | 14780
2 | 3:17.06 | 9:58.11 | 14781 | 59641
3 | 13:15.17 | 10:27.56 | 59642 | 106722
4 | 23:42.73 | 8:04.74 | 106723 | 143096
5 | 31:47.72 | 12:09.69 | 143097 | 197840
6 | 43:57.66 | 6:45.63 | 197841 | 228278
7 | 50:43.54 | 7:46.06 | 228279 | 263234
Range status and errors
Selected range
Filename C:\Users\vvb05\Desktop\Аудио\Nokturnal Mortum - Kolovorot (CD1).wav
Peak level 98.9 %
Extraction speed 5.7 X
Range quality 100.0 %
Test CRC 4D3DCF61
Copy CRC 4D3DCF61
Copy OK
No errors occurred
AccurateRip summary
Track 1 not present in database
Track 2 not present in database
Track 3 not present in database
Track 4 not present in database
Track 5 not present in database
Track 6 not present in database
Track 7 not present in database
None of the tracks are present in the AccurateRip database
End of status report
==== Log checksum 58EB2FF041B68F6C078151F5BD50AFBD82374570126A60F091C4FE1D341AF479 ====

ЛОГ ЕАС CD2

Exact Audio Copy V1.0 beta 3 from 29. August 2011
EAC extraction logfile from 26. December 2011, 21:46
Nokturnal Mortum / Kolovorot (CD2)
Used drive : ASUS DRW-24B3ST Adapter: 3 ID: 1
Read mode : Secure
Utilize accurate stream : Yes
Defeat audio cache : Yes
Make use of C2 pointers : No
Read offset correction : 6
Overread into Lead-In and Lead-Out : No
Fill up missing offset samples with silence : Yes
Delete leading and trailing silent blocks : No
Null samples used in CRC calculations : Yes
Used interface : Native Win32 interface for Win NT & 2000
Used output format : User Defined Encoder
Selected bitrate : 128 kBit/s
Quality : High
Add ID3 tag : No
Command line compressor : C:\Program Files\FLAC\flac.exe
Additional command line options : -V -8 -T "Date=%year%" -T "Genre=%genre%" %source%
TOC of the extracted CD
Track | Start | Length | Start sector | End sector
---------------------------------------------------------
1 | 0:00.00 | 4:51.07 | 0 | 21831
2 | 4:51.07 | 8:35.24 | 21832 | 60480
3 | 13:26.31 | 7:55.64 | 60481 | 96169
4 | 21:22.20 | 8:38.65 | 96170 | 135084
5 | 30:01.10 | 7:45.60 | 135085 | 170019
6 | 37:46.70 | 13:42.21 | 170020 | 231690
7 | 51:29.16 | 5:59.26 | 231691 | 258641
8 | 57:28.42 | 5:09.36 | 258642 | 281852
Range status and errors
Selected range
Filename C:\Users\vvb05\Desktop\Аудио\Nokturnal Mortum - Kolovorot (CD2).wav
Peak level 98.9 %
Extraction speed 5.9 X
Range quality 100.0 %
Test CRC A4C7DA3F
Copy CRC A4C7DA3F
Copy OK
No errors occurred
AccurateRip summary
Track 1 not present in database
Track 2 not present in database
Track 3 not present in database
Track 4 not present in database
Track 5 not present in database
Track 6 not present in database
Track 7 not present in database
Track 8 not present in database
None of the tracks are present in the AccurateRip database
End of status report
==== Log checksum 922B955E303AE945DC6E6BCF9A97578BD949C60EAE291B10DB41D4EE41E28357 ====
[Profile]  [PM] 
Display posts:    
Reply to topic

Current time is: 16-Jan 22:08

All times are UTC + 2



You cannot post new topics in this forum
You cannot reply to topics in this forum
You cannot edit your posts in this forum
You cannot delete your posts in this forum
You cannot vote in polls in this forum
You cannot attach files in this forum
You cannot download files in this forum