Герой / Geroy (Карен Оганесян) [2019, Триллер, комедия, боевик, криминал,WEB-DLRip 1080p] [iTunes]

Reply to topic
 
Author
Message

Враг Нароода ®

Gender: Unknown

Longevity: 5 years 7 months

Posts: 404

Reputation: 1 [+] [-]

Враг Нароода · Post 29-Oct-2019 13:56

[Quote] 

--Герой / Geroy -- --Год выпуска: 2018
Выпущено: Россия , Телеканал «РОССИЯ 1», Карго Фильм
Жанр:Триллер, комедия, боевик, криминал
Продолжительность: 01:55:42
Озвучка : -Русский --Релиз Без Рекламы --MDB 5.3 --Режиссер:
Карен Оганесян--В ролях: Александр Петров, Владимир Машков, Светлана Ходченкова, Ян Алабушев, Константин Лавроненко, Марина Петренко, Анастасия Тодореску, Тобиас Аспелин-- 15 лет назад Андрей под руководством своего отца, полковника Родина, прошел обучение в секретной спецшколе, где из подростков готовили агентов Службы внешней разведки. Когда экспериментальный проект закрыли, Андрей «сжёг мосты», остался в Европе и старался не вспоминать о прошлом. Но однажды ему звонит отец, которого все считали погибшим. Тот сообщает, что на Андрея открыта охота, но кто решил его уничтожить — неизвестно. Спасаясь бегством, он находит Машу, с которой учился в спецшколе. Андрею предстоит пройти через любовь и предательство и узнать об истинных масштабах беспощадной шпионской игры, в которую он оказался втянут поневоле.-- --Качество :WEB-DLRip 1080p
Формат: MKV
Видео кодек: H264
Видео: 4516Кбит/сек,1920х804(40.1),в 25.000кадр/сек,AVC (High@L4)(CABAC/5 Ref Frames)--Аудио Кодек: AC3 - DTS
Аудио #1: Rus-iTunes @DD5.1 AC3, 384 Kbps, 48.0 KHz, 6 ch -Русский
Аудио #2: Rus-iTunes @DD5.1 DTS, 3840 Kbps, 48.0 KHz, 6 ch -Русский--

MediaInfo

Общее
Уникальный идентификатор : 199022459295865824118617861657823475688 (0x95BA54D664244F334261E2044EFEF7E8)
Полное имя : C:\RussianPatriot\Герой - Geroy\Geroy_2019_Rus_iTunes_Н264_DD5.1_N.B_HD_1080p\Geroy_2019_Rus_iTunes_Н264_DD5.1_N.B_HD_1080p.mkv
Формат : Matroska
Версия формата : Version 4
Размер файла : 7,17 Гбайт
Продолжительность : 1 ч. 55 м.
Общий поток : 8871 Кбит/сек
Название фильма : Geroy 2019 Rus iTunes @ Nikolai.Baranov & PIRATIYA
Дата кодирования : UTC 2019-10-29 08:23:46
Программа кодирования : mkvmerge v38.0.0 ('The Silent Type') 64-bit
Библиотека кодирования : libebml v1.3.9 + libmatroska v1.5.2 / Lavf58.20.100
Обложка : Yes
Attachments : cover.jpg
Видео
Идентификатор : 1
Формат : AVC
Формат/Информация : Advanced Video Codec
Профиль формата : High@L4
Настройки формата : CABAC / 5 Ref Frames
Параметр CABAC формата : Да
Параметр RefFrames формата : 5 кадров
Идентификатор кодека : V_MPEG4/ISO/AVC
Продолжительность : 1 ч. 55 м.
Битрейт : 4516 Кбит/сек
Ширина : 1920 пикселей
Высота : 804 пикселя
Соотношение сторон : 2,40:1
Режим частоты кадров : Постоянный
Частота кадров : 25,000 кадров/сек
Цветовое пространство : YUV
Субдискретизация насыщенности : 4:2:0
Битовая глубина : 8 бит
Тип развёртки : Прогрессивная
Бит/(Пиксели*Кадры) : 0.117
Размер потока : 3,65 Гбайт (51%)
Заголовок : Geroy_2019_Rus_iTunes_Н264_DD5.1_N.B_HD_1080p
Язык : Russian
Default : Да
Forced : Нет
Цветовой диапазон : Limited
Основные цвета : BT.709
Характеристики трансфера : BT.709
Коэффициенты матрицы : BT.709
Аудио #1
Идентификатор : 2
Формат : AC-3
Формат/Информация : Audio Coding 3
Коммерческое название : Dolby Digital
Идентификатор кодека : A_AC3
Продолжительность : 1 ч. 55 м.
Вид битрейта : Постоянный
Битрейт : 384 Кбит/сек
Каналы : 6 каналов
ChannelLayout : L R C LFE Ls Rs
Частота : 48,0 КГц
Частота кадров : 31,250 кадров/сек (1536 SPF)
Метод сжатия : С потерями
Задержка видео : -40 мс.
Размер потока : 318 Мбайт (4%)
Заголовок : Rus-iTunes @DD5.1 AC3, 384 Kbps, 48.0 KHz, 6 ch
Язык : Russian
ServiceKind/String : Complete Main
Default : Да
Forced : Нет
Аудио #2
Идентификатор : 3
Формат : DTS
Формат/Информация : Digital Theater Systems
Идентификатор кодека : A_DTS
Продолжительность : 1 ч. 55 м.
Вид битрейта : Постоянный
Битрейт : 3968 Кбит/сек
Каналы : 6 каналов
ChannelLayout : C L R Ls Rs LFE
Частота : 48,0 КГц
Частота кадров : 46,875 кадров/сек (1024 SPF)
Битовая глубина : 16 бит
Метод сжатия : С потерями
Задержка видео : -40 мс.
Размер потока : 3,21 Гбайт (45%)
Заголовок : Rus-iTunes @DD5.1 DTS, 3840 Kbps, 48.0 KHz, 6 ch
Язык : Russian
Default : Нет
Forced : Нет
Меню
00:00:00.000 : en:Глава 1
00:08:07.120 : en:Глава 2
00:16:04.799 : en:Глава 3
00:23:50.719 : en:Глава 4
00:31:17.319 : en:Глава 5
00:38:27.799 : en:Глава 6
00:46:04.679 : en:Глава 7
00:54:12.238 : en:Глава 8
01:01:21.437 : en:Глава 9
01:09:38.196 : en:Глава 10
01:17:53.196 : en:Глава 11
01:24:54.756 : en:Глава 12
01:32:16.356 : en:Глава 13
01:39:37.435 : en:Глава 14
01:46:51.674 : en:Глава 15
--

Скриншоты

-- -- -- --Релиз от: Nikolai.Baranov & PIRATIYAПоблагодарить:
ЯД: 410017546713876
-- -- -- --Время раздачи : 24/7--
[Profile]  [PM] 
Display posts:    
Reply to topic

Current time is: 30-Mar 21:28

All times are UTC + 2



You cannot post new topics in this forum
You cannot reply to topics in this forum
You cannot edit your posts in this forum
You cannot delete your posts in this forum
You cannot vote in polls in this forum
You cannot attach files in this forum
You cannot download files in this forum