Пассажиры / Passengers (Родриго Гарсия / Rodrigo García) [2008, США, Канада, драма, триллер, BDRemux 1080i] [Open Matte] MVO + DVO + Sub Rus, Eng + Original Eng

Reply to topic
 
Author
Message

Faust ®

Gender: Unknown

Longevity: 12 years

Posts: 23202

Reputation: 0 [+] [-]

Faust · Post 05-Jun-2023 16:20

[Quote] 

Пассажиры / Passengers---MEX Transfer | Zima | Open Matte---
Страна: США, Канада
Студия: Intuition Films, Mandate Pictures
Жанр: драма, триллер
Год выпуска: 2008
Продолжительность: 01:28:50
Перевод: Профессиональный (многоголосый закадровый)
Перевод: Профессиональный (двухголосый закадровый)
Субтитры: русские, английские (полные, для слабослышащих), немецкие, французские, испанские, итальянские, португальские (европейские, бразильские), албанские, арабские, бенгальские, болгарские, венгерские, вьетнамские, голландские, греческие, датские, иврит, индонезийские, каталанские, китайские (упрощённые, традиционные), корейские, македонские, малазийские, норвежские, польские, румынские, сербские, словацкие, словенские, тайские, турецкие, фарси, финские, хорватские, чешские, шведские, эстонские, японские
Оригинальная аудиодорожка: английский

Режиссер: Родриго Гарсия / Rodrigo García
В ролях: Энн Хэтэуэй, Патрик Уилсон, Андре Брогер, Дайэнн Уист, Дэвид Морс, Уильям Б. Дэвис, Райан Роббинс, Клеа Дювалл, Дон Томпсон, Эндрю Вилер, Чела Хорсдэл, Карен Остин, Стэйси Грант, Коннер Дьюлли, Роберт Говен
Описание: События разворачиваются вокруг психиатра, помогающего шести уцелевшим в авиакатастрофе пассажирам справиться с пережитым шоком. С одним из пациентов у докторши завязывается роман, но любовная идиллия чахнет на корню, когда выжившие начинают бесследно исчезать. Героиня подозревает заговор и ударяется в поиски правды.--За исходник спасибо группе NovaLan и Sergei7721! Пересобрано с добавление субтитров, дороги с комментариями и навигации по главам. Обложка соответствует изданию.--Сэмпл | Кинопоиск | IMDb
Тип релиза: BDRemux 1080i
Контейнер: MKV
Видео: 1920x1080 (16:9), 25.000 fps, AVC, 28132 kbps, 0.535 bits/pixel
Аудио 1: Russian, 48.0 KHz, AC3, 6 ch, 384 Kbps - MVO
Аудио 2: Russian, 48.0 KHz, AC3, 6 ch, 384 Kbps - DVO
Аудио 3: English, 48.0 KHz, DTS-HD MA, 6 ch, 1758 Kbps/1510 Kbps - Original
Аудио 4: English, 48.0 KHz, AC3, 2 ch, 192 Kbps - Commentary by Director Rodrigo Garcia and Actor Patrick Wilson
Формат субтитров: softsub (SRT)

Сравнение

https://torrentsland.com.ua/forum/viewtopic.php?t=1878708---BDRip 1080p BDRemux 1080i Open Matte--- -- -- -- --

MediaInfo

ОбщееУникальный идентификатор                 : 216325044182518648353413521694738677049 (0xA2BEB022D0108D2BA3266BF565B4FD39)Полное имя                               : U:\Vremyanka\Passengers.2008.Zima.BDRemux.1080i.mkvФормат                                   : MatroskaВерсия формата                           : Version 4Размер файла                             : 19,2 ГбайтПродолжительность                        : 1 ч. 28 м.Режим общего битрейта                    : ПеременныйОбщий поток                              : 30,9 Мбит/секНазвание фильма                          : Passengers.2008.Zima.BDRemux.1080i_AllFilms_tekoДата кодирования                         : UTC 2023-05-18 03:09:35Программа кодирования                    : mkvmerge v9.5.0 ('Quiet Fire') 64bitБиблиотека кодирования                   : libebml v1.3.4 + libmatroska v1.4.5Обложка                                  : YesAttachments                              : Passengers.2008.BD.Poster.jpg / Passengers.2008.BD.Cover.jpg / Passengers.2008.Cover.jpg / Passengers.2008.SP.BD.Back.Cover.png / Passengers.2008.SP.BD.Front.Cover.png / Passengers.2008.DVD.jpg / Passengers.2008.DVD.Cover.jpg / Passengers.2008.DVD.Print.jpg / Passengers.2008.Plakat.jpg / Passengers.2008.Poster.jpg / Passengers.2008.Print.jpg / Passengers.2008.Afisha.jpg / Passengers.2008.Russian.Poster.jpg
ВидеоИдентификатор : 1Формат : AVCФормат/Информация : Advanced Video CodecПрофиль формата : High@L4.1Настройки формата : CABAC / 4 Ref FramesПараметр CABAC формата : ДаПараметр RefFrames формата : 4 кадраИдентификатор кодека : V_MPEG4/ISO/AVCПродолжительность : 1 ч. 28 м.Вид битрейта : ПеременныйБитрейт : 28,1 Мбит/секМаксимальный битрейт : 35,5 Мбит/секШирина : 1920 пикселейВысота : 1080 пикселейСоотношение сторон : 16:9Режим частоты кадров : ПостоянныйЧастота кадров : 25,000 кадров/секСтандарт вещания : PALЦветовое пространство : YUVСубдискретизация насыщенности : 4:2:0Битовая глубина : 8 битТип развёртки : MBAFFМетод сохранения типа развёртки : Чередующиеся поляПорядок развёртки : Верхнее поле первоеБит/(Пиксели*Кадры) : 0.543Размер потока : 17,5 Гбайт (91%)Заголовок : Passengers.2008.Zima.BDRemux.1080iЯзык : EnglishDefault : ДаForced : НетЦветовой диапазон : LimitedОсновные цвета : BT.709Характеристики трансфера : BT.709Коэффициенты матрицы : BT.709
Аудио #1Идентификатор : 2Формат : AC-3Формат/Информация : Audio Coding 3Коммерческое название : Dolby DigitalИдентификатор кодека : A_AC3Продолжительность : 1 ч. 28 м.Вид битрейта : ПостоянныйБитрейт : 384 Кбит/секКаналы : 6 каналовChannelLayout : L R C LFE Ls RsЧастота : 48,0 КГцЧастота кадров : 31,250 кадров/сек (1536 SPF)Метод сжатия : С потерямиРазмер потока : 244 Мбайт (1%)Заголовок : MVOЯзык : RussianServiceKind/String : Complete MainDefault : ДаForced : Нет
Аудио #2Идентификатор : 3Формат : AC-3Формат/Информация : Audio Coding 3Коммерческое название : Dolby DigitalИдентификатор кодека : A_AC3Продолжительность : 1 ч. 28 м.Вид битрейта : ПостоянныйБитрейт : 384 Кбит/секКаналы : 6 каналовChannelLayout : L R C LFE Ls RsЧастота : 48,0 КГцЧастота кадров : 31,250 кадров/сек (1536 SPF)Метод сжатия : С потерямиРазмер потока : 244 Мбайт (1%)Заголовок : DVOЯзык : RussianServiceKind/String : Complete MainDefault : НетForced : Нет
Аудио #3Идентификатор : 4Формат : DTS XLLФормат/Информация : Digital Theater SystemsКоммерческое название : DTS-HD Master AudioИдентификатор кодека : A_DTSПродолжительность : 1 ч. 28 м.Вид битрейта : ПеременныйБитрейт : 1758 Кбит/секКаналы : 6 каналовChannelLayout : C L R Ls Rs LFEЧастота : 48,0 КГцЧастота кадров : 93,750 кадра/сек (512 SPF)Битовая глубина : 16 битМетод сжатия : Без потерьРазмер потока : 1,09 Гбайт (6%)Заголовок : OriginalЯзык : EnglishDefault : НетForced : Нет
Аудио #4Идентификатор : 5Формат : AC-3Формат/Информация : Audio Coding 3Коммерческое название : Dolby DigitalИдентификатор кодека : A_AC3Продолжительность : 1 ч. 28 м.Вид битрейта : ПостоянныйБитрейт : 192 Кбит/секКаналы : 2 каналаChannelLayout : L RЧастота : 48,0 КГцЧастота кадров : 31,250 кадров/сек (1536 SPF)Метод сжатия : С потерямиРазмер потока : 122 Мбайт (1%)Заголовок : Commentary by Director Rodrigo Garcia and Actor Patrick WilsonЯзык : EnglishServiceKind/String : Complete MainDefault : НетForced : Нет
Текст #1Идентификатор : 6Формат : UTF-8Идентификатор кодека : S_TEXT/UTF8Идентификатор кодека/Информация : UTF-8 Plain TextПродолжительность : 1 ч. 22 м.Битрейт : 49 бит/секElementCount : 866Размер потока : 29,7 Кбайт (0%)Заголовок : RussianЯзык : RussianDefault : НетForced : Нет
Текст #2Идентификатор : 7Формат : UTF-8Идентификатор кодека : S_TEXT/UTF8Идентификатор кодека/Информация : UTF-8 Plain TextПродолжительность : 1 ч. 20 м.Битрейт : 66 бит/секElementCount : 758Размер потока : 39,7 Кбайт (0%)Заголовок : RussianЯзык : RussianDefault : НетForced : Нет
Текст #3Идентификатор : 8Формат : UTF-8Идентификатор кодека : S_TEXT/UTF8Идентификатор кодека/Информация : UTF-8 Plain TextПродолжительность : 1 ч. 23 м.Битрейт : 40 бит/секElementCount : 884Размер потока : 24,6 Кбайт (0%)Заголовок : English FullЯзык : EnglishDefault : НетForced : Нет
Текст #4Идентификатор : 9Формат : UTF-8Идентификатор кодека : S_TEXT/UTF8Идентификатор кодека/Информация : UTF-8 Plain TextПродолжительность : 1 ч. 19 м.Битрейт : 42 бит/секElementCount : 922Размер потока : 25,1 Кбайт (0%)Заголовок : English SDHЯзык : EnglishDefault : НетForced : Нет
Текст #5Идентификатор : 10Формат : UTF-8Идентификатор кодека : S_TEXT/UTF8Идентификатор кодека/Информация : UTF-8 Plain TextПродолжительность : 1 ч. 20 м.Битрейт : 41 бит/секElementCount : 859Размер потока : 24,6 Кбайт (0%)Заголовок : GermanЯзык : GermanDefault : НетForced : Нет
Текст #6Идентификатор : 11Формат : UTF-8Идентификатор кодека : S_TEXT/UTF8Идентификатор кодека/Информация : UTF-8 Plain TextПродолжительность : 1 ч. 19 м.Битрейт : 48 бит/секElementCount : 884Размер потока : 28,1 Кбайт (0%)Заголовок : FrenchЯзык : FrenchDefault : НетForced : Нет
Текст #7Идентификатор : 12Формат : UTF-8Идентификатор кодека : S_TEXT/UTF8Идентификатор кодека/Информация : UTF-8 Plain TextПродолжительность : 1 ч. 24 м.Битрейт : 36 бит/секElementCount : 812Размер потока : 22,8 Кбайт (0%)Заголовок : SpanishЯзык : SpanishDefault : НетForced : Нет
Текст #8Идентификатор : 13Формат : UTF-8Идентификатор кодека : S_TEXT/UTF8Идентификатор кодека/Информация : UTF-8 Plain TextПродолжительность : 1 ч. 22 м.Битрейт : 47 бит/секElementCount : 897Размер потока : 28,3 Кбайт (0%)Заголовок : ItalianЯзык : ItalianDefault : НетForced : Нет
Текст #9Идентификатор : 14Формат : UTF-8Идентификатор кодека : S_TEXT/UTF8Идентификатор кодека/Информация : UTF-8 Plain TextПродолжительность : 1 ч. 24 м.Битрейт : 37 бит/секElementCount : 744Размер потока : 23,2 Кбайт (0%)Заголовок : Portuguese IberianЯзык : PortugueseDefault : НетForced : Нет
Текст #10Идентификатор : 15Формат : UTF-8Идентификатор кодека : S_TEXT/UTF8Идентификатор кодека/Информация : UTF-8 Plain TextПродолжительность : 1 ч. 22 м.Битрейт : 40 бит/секElementCount : 868Размер потока : 24,8 Кбайт (0%)Заголовок : Portuguese BrazilianЯзык : PortugueseDefault : НетForced : Нет
Текст #11Идентификатор : 16Формат : UTF-8Идентификатор кодека : S_TEXT/UTF8Идентификатор кодека/Информация : UTF-8 Plain TextПродолжительность : 1 ч. 24 м.Битрейт : 37 бит/секElementCount : 857Размер потока : 22,9 Кбайт (0%)Заголовок : AlbanianЯзык : AlbanianDefault : НетForced : Нет
Текст #12Идентификатор : 17Формат : UTF-8Идентификатор кодека : S_TEXT/UTF8Идентификатор кодека/Информация : UTF-8 Plain TextПродолжительность : 1 ч. 22 м.Битрейт : 59 бит/секElementCount : 876Размер потока : 35,6 Кбайт (0%)Заголовок : ArabicЯзык : ArabicDefault : НетForced : Нет
Текст #13Идентификатор : 18Формат : UTF-8Идентификатор кодека : S_TEXT/UTF8Идентификатор кодека/Информация : UTF-8 Plain TextПродолжительность : 1 ч. 22 м.Битрейт : 103 бит/секElementCount : 885Размер потока : 62,7 Кбайт (0%)Заголовок : BengaliЯзык : BengaliDefault : НетForced : Нет
Текст #14Идентификатор : 19Формат : UTF-8Идентификатор кодека : S_TEXT/UTF8Идентификатор кодека/Информация : UTF-8 Plain TextПродолжительность : 1 ч. 24 м.Битрейт : 67 бит/секElementCount : 712Размер потока : 42,0 Кбайт (0%)Заголовок : BulgarianЯзык : BulgarianDefault : НетForced : Нет
Текст #15Идентификатор : 20Формат : UTF-8Идентификатор кодека : S_TEXT/UTF8Идентификатор кодека/Информация : UTF-8 Plain TextПродолжительность : 1 ч. 21 м.Битрейт : 34 бит/секElementCount : 867Размер потока : 20,8 Кбайт (0%)Заголовок : HungarianЯзык : HungarianDefault : НетForced : Нет
Текст #16Идентификатор : 21Формат : UTF-8Идентификатор кодека : S_TEXT/UTF8Идентификатор кодека/Информация : UTF-8 Plain TextПродолжительность : 1 ч. 22 м.Битрейт : 59 бит/секElementCount : 875Размер потока : 36,0 Кбайт (0%)Заголовок : VietnameseЯзык : VietnameseDefault : НетForced : Нет
Текст #17Идентификатор : 22Формат : UTF-8Идентификатор кодека : S_TEXT/UTF8Идентификатор кодека/Информация : UTF-8 Plain TextПродолжительность : 1 ч. 19 м.Битрейт : 45 бит/секElementCount : 846Размер потока : 26,5 Кбайт (0%)Заголовок : DutchЯзык : DutchDefault : НетForced : Нет
Текст #18Идентификатор : 23Формат : UTF-8Идентификатор кодека : S_TEXT/UTF8Идентификатор кодека/Информация : UTF-8 Plain TextПродолжительность : 1 ч. 20 м.Битрейт : 73 бит/секElementCount : 876Размер потока : 43,4 Кбайт (0%)Заголовок : GreekЯзык : GreekDefault : НетForced : Нет
Текст #19Идентификатор : 24Формат : UTF-8Идентификатор кодека : S_TEXT/UTF8Идентификатор кодека/Информация : UTF-8 Plain TextПродолжительность : 1 ч. 23 м.Битрейт : 36 бит/секElementCount : 633Размер потока : 22,5 Кбайт (0%)Заголовок : DanishЯзык : DanishDefault : НетForced : Нет
Текст #20Идентификатор : 25Формат : UTF-8Идентификатор кодека : S_TEXT/UTF8Идентификатор кодека/Информация : UTF-8 Plain TextПродолжительность : 1 ч. 24 м.Битрейт : 49 бит/секElementCount : 643Размер потока : 30,4 Кбайт (0%)Заголовок : HebrewЯзык : HebrewDefault : НетForced : Нет
Текст #21Идентификатор : 26Формат : UTF-8Идентификатор кодека : S_TEXT/UTF8Идентификатор кодека/Информация : UTF-8 Plain TextПродолжительность : 1 ч. 22 м.Битрейт : 45 бит/секElementCount : 885Размер потока : 27,2 Кбайт (0%)Заголовок : IndinesianЯзык : IndonesianDefault : НетForced : Нет
Текст #22Идентификатор : 27Формат : UTF-8Идентификатор кодека : S_TEXT/UTF8Идентификатор кодека/Информация : UTF-8 Plain TextПродолжительность : 1 ч. 24 м.Битрейт : 39 бит/секElementCount : 821Размер потока : 24,7 Кбайт (0%)Заголовок : CatalanЯзык : CatalanDefault : НетForced : Нет
Текст #23Идентификатор : 28Формат : UTF-8Идентификатор кодека : S_TEXT/UTF8Идентификатор кодека/Информация : UTF-8 Plain TextПродолжительность : 1 ч. 20 м.Битрейт : 36 бит/секElementCount : 877Размер потока : 21,8 Кбайт (0%)Заголовок : Chinese SimplifiedЯзык : ChineseDefault : НетForced : Нет
Текст #24Идентификатор : 29Формат : UTF-8Идентификатор кодека : S_TEXT/UTF8Идентификатор кодека/Информация : UTF-8 Plain TextПродолжительность : 1 ч. 20 м.Битрейт : 36 бит/секElementCount : 877Размер потока : 21,8 Кбайт (0%)Заголовок : Chinese TraditionalЯзык : ChineseDefault : НетForced : Нет
Текст #25Идентификатор : 30Формат : UTF-8Идентификатор кодека : S_TEXT/UTF8Идентификатор кодека/Информация : UTF-8 Plain TextПродолжительность : 1 ч. 22 м.Битрейт : 48 бит/секElementCount : 858Размер потока : 28,9 Кбайт (0%)Заголовок : KoreanЯзык : KoreanDefault : НетForced : Нет
Текст #26Идентификатор : 31Формат : UTF-8Идентификатор кодека : S_TEXT/UTF8Идентификатор кодека/Информация : UTF-8 Plain TextПродолжительность : 1 ч. 22 м.Битрейт : 68 бит/секElementCount : 801Размер потока : 41,2 Кбайт (0%)Заголовок : MacedonianЯзык : MacedonianDefault : НетForced : Нет
Текст #27Идентификатор : 32Формат : UTF-8Идентификатор кодека : S_TEXT/UTF8Идентификатор кодека/Информация : UTF-8 Plain TextПродолжительность : 1 ч. 19 м.Битрейт : 48 бит/секElementCount : 869Размер потока : 28,0 Кбайт (0%)Заголовок : MalayЯзык : MalayDefault : НетForced : Нет
Текст #28Идентификатор : 33Формат : UTF-8Идентификатор кодека : S_TEXT/UTF8Идентификатор кодека/Информация : UTF-8 Plain TextПродолжительность : 1 ч. 23 м.Битрейт : 35 бит/секElementCount : 633Размер потока : 21,5 Кбайт (0%)Заголовок : NorwegianЯзык : NorwegianDefault : НетForced : Нет
Текст #29Идентификатор : 34Формат : UTF-8Идентификатор кодека : S_TEXT/UTF8Идентификатор кодека/Информация : UTF-8 Plain TextПродолжительность : 1 ч. 19 м.Битрейт : 40 бит/секElementCount : 809Размер потока : 23,6 Кбайт (0%)Заголовок : PolishЯзык : PolishDefault : НетForced : Нет
Текст #30Идентификатор : 35Формат : UTF-8Идентификатор кодека : S_TEXT/UTF8Идентификатор кодека/Информация : UTF-8 Plain TextПродолжительность : 1 ч. 22 м.Битрейт : 40 бит/секElementCount : 881Размер потока : 24,3 Кбайт (0%)Заголовок : RomanianЯзык : RomanianDefault : НетForced : Нет
Текст #31Идентификатор : 36Формат : UTF-8Идентификатор кодека : S_TEXT/UTF8Идентификатор кодека/Информация : UTF-8 Plain TextПродолжительность : 1 ч. 22 м.Битрейт : 33 бит/секElementCount : 888Размер потока : 20,0 Кбайт (0%)Заголовок : SerbianЯзык : SerbianDefault : НетForced : Нет
Текст #32Идентификатор : 37Формат : UTF-8Идентификатор кодека : S_TEXT/UTF8Идентификатор кодека/Информация : UTF-8 Plain TextПродолжительность : 1 ч. 19 м.Битрейт : 43 бит/секElementCount : 882Размер потока : 25,5 Кбайт (0%)Заголовок : SlovakЯзык : SlovakDefault : НетForced : Нет
Текст #33Идентификатор : 38Формат : UTF-8Идентификатор кодека : S_TEXT/UTF8Идентификатор кодека/Информация : UTF-8 Plain TextПродолжительность : 1 ч. 24 м.Битрейт : 32 бит/секElementCount : 712Размер потока : 20,3 Кбайт (0%)Заголовок : SlovenianЯзык : SlovenianDefault : НетForced : Нет
Текст #34Идентификатор : 39Формат : UTF-8Идентификатор кодека : S_TEXT/UTF8Идентификатор кодека/Информация : UTF-8 Plain TextПродолжительность : 1 ч. 19 м.Битрейт : 100 бит/секElementCount : 921Размер потока : 58,5 Кбайт (0%)Заголовок : ThaiЯзык : ThaiDefault : НетForced : Нет
Текст #35Идентификатор : 40Формат : UTF-8Идентификатор кодека : S_TEXT/UTF8Идентификатор кодека/Информация : UTF-8 Plain TextПродолжительность : 1 ч. 23 м.Битрейт : 47 бит/секElementCount : 898Размер потока : 28,6 Кбайт (0%)Заголовок : TurkishЯзык : TurkishDefault : НетForced : Нет
Текст #36Идентификатор : 41Формат : UTF-8Идентификатор кодека : S_TEXT/UTF8Идентификатор кодека/Информация : UTF-8 Plain TextПродолжительность : 1 ч. 20 м.Битрейт : 62 бит/секElementCount : 873Размер потока : 36,9 Кбайт (0%)Заголовок : PersianЯзык : PersianDefault : НетForced : Нет
Текст #37Идентификатор : 42Формат : UTF-8Идентификатор кодека : S_TEXT/UTF8Идентификатор кодека/Информация : UTF-8 Plain TextПродолжительность : 1 ч. 20 м.Битрейт : 42 бит/секElementCount : 884Размер потока : 24,9 Кбайт (0%)Заголовок : FinnishЯзык : FinnishDefault : НетForced : Нет
Текст #38Идентификатор : 43Формат : UTF-8Идентификатор кодека : S_TEXT/UTF8Идентификатор кодека/Информация : UTF-8 Plain TextПродолжительность : 1 ч. 24 м.Битрейт : 32 бит/секElementCount : 712Размер потока : 20,3 Кбайт (0%)Заголовок : CroatianЯзык : CroatianDefault : НетForced : Нет
Текст #39Идентификатор : 44Формат : UTF-8Идентификатор кодека : S_TEXT/UTF8Идентификатор кодека/Информация : UTF-8 Plain TextПродолжительность : 1 ч. 21 м.Битрейт : 41 бит/секElementCount : 832Размер потока : 24,6 Кбайт (0%)Заголовок : CzechЯзык : CzechDefault : НетForced : Нет
Текст #40Идентификатор : 45Формат : UTF-8Идентификатор кодека : S_TEXT/UTF8Идентификатор кодека/Информация : UTF-8 Plain TextПродолжительность : 1 ч. 20 м.Битрейт : 35 бит/секElementCount : 557Размер потока : 20,8 Кбайт (0%)Заголовок : SwedishЯзык : SwedishDefault : НетForced : Нет
Текст #41Идентификатор : 46Формат : UTF-8Идентификатор кодека : S_TEXT/UTF8Идентификатор кодека/Информация : UTF-8 Plain TextПродолжительность : 1 ч. 20 м.Битрейт : 42 бит/секElementCount : 880Размер потока : 25,1 Кбайт (0%)Заголовок : EstonianЯзык : EstonianDefault : НетForced : Нет
Текст #42Идентификатор : 47Формат : UTF-8Идентификатор кодека : S_TEXT/UTF8Идентификатор кодека/Информация : UTF-8 Plain TextПродолжительность : 1 ч. 21 м.Битрейт : 77 бит/секElementCount : 865Размер потока : 46,2 Кбайт (0%)Заголовок : JapaneseЯзык : JapaneseDefault : НетForced : Нет
Меню00:00:00.000 : en:Main Title00:06:25.900 : en:Neglect00:11:48.219 : en:Quote00:19:25.260 : en:Therapy00:24:02.581 : en:The Answering Machine00:30:10.780 : en:The Keys00:36:13.899 : en:Interrupcion00:43:00.660 : en:On the Ship00:48:35.580 : en:Visiting00:54:22.221 : en:Help!01:00:40.740 : en:Alone01:06:22.779 : en:The Train01:13:02.540 : en:On the List01:18:20.980 : en:On Board01:23:35.021 : en:End Credits

Скриншоты

Релиз группы:
--
[Profile]  [PM] 
Display posts:    
Reply to topic

Current time is: 21-Jul 22:05

All times are UTC + 2



You cannot post new topics in this forum
You cannot reply to topics in this forum
You cannot edit your posts in this forum
You cannot delete your posts in this forum
You cannot vote in polls in this forum
You cannot attach files in this forum
You cannot download files in this forum