Гремлины / Gremlins (Джо Данте / Joe Dante) [1984, США, комедия, ужасы, BDRip-AVC] AVO (Юрий Живов)

Reply to topic
 
Author
Message

Satyr ®

Gender: Unknown

Longevity: 15 years

Posts: 22031

Reputation: 56 [+] [-]

Satyr · Post 05-Jun-2023 20:25

[Quote] 

Гремлины / Gremlins
Страна: США
Жанр: комедия, ужасы
Год выпуска: 1984
Продолжительность: 01:46:16
Перевод: Авторский (одноголосый закадровый) Юрий Живов
Субтитры: нет
Оригинальная аудиодорожка: нет
Режиссер: Джо Данте / Joe Dante
В ролях: Зак Гэллиган, Фиби Кейтс, Хойт Экстон, Стивен Спилберг, Полли Холлидей, Фрэнсис Ли МакКейн, Кори Фельдман, Скотт Брейди, Дик Миллер, Эдвард Эндрюс...
Описание: Очаровательный пушистый зверек Магвай способен растрогать даже камень. Вдобавок, у него — абсолютный слух! Только будьте осторожны: он может погибнуть от солнечного света.На него нельзя брызгать водой. А что будет, если накормить его после полуночи, просто страшно себе представить…
Доп. информация: Дорожку (Живов) синхронизировал ale_x2008
За оцифрованную с VHS дорожку благодарим - RoxMarty

Релиз
Сэмпл: https://www.sendspace.com/file/9q8izo
Качество видео: BDRip-AVC [Gremliny.1984.VC-1.BDRemux(1080p).Marchik60]
Формат видео: MKV
Видео: MPEG4 Video (H264) 944x528 23.976fps Bit rate 2 465 kb/s
Аудио: Dolby AC3 48000Hz 2 ch (mono) 192kbps

MediaInfo

Гремлины (Gremlins) BDRip-AVC [by ale_x2008].mkvFormat                      : MatroskaFormat version              : Version 4File size                   : 1.97 GiBDuration                    : 1 h 46 minOverall bit rate            : 2 659 kb/sFrame rate                  : 23.976 FPSEncoded date                : 2023-06-05 14:03:40 UTCWriting application         : mkvmerge v71.0.0 ('Altitude') 64-bitWriting library             : libebml v1.4.4 + libmatroska v1.7.1
VideoID : 1Format : AVCFormat/Info : Advanced Video CodecFormat profile : High@L4.1Format settings : CABAC / 16 Ref FramesFormat settings, CABAC : YesFormat settings, Reference : 16 framesCodec ID : V_MPEG4/ISO/AVCDuration : 1 h 46 minBit rate : 2 465 kb/sWidth : 944 pixelsHeight : 528 pixelsDisplay aspect ratio : 16:9Frame rate mode : ConstantFrame rate : 23.976 (24000/1001) FPSColor space : YUVChroma subsampling : 4:2:0Bit depth : 8 bitsScan type : ProgressiveBits/(Pixel*Frame) : 0.206Stream size : 1.83 GiB (93%)Writing library : x264 core 148 r2638 7599210Encoding settings : cabac=1 / ref=16 / deblock=1:-3:-3 / analyse=0x3:0x133 / me=umh / subme=9 / psy=1 / psy_rd=1.00:0.00 / mixed_ref=1 / me_range=32 / chroma_me=1 / trellis=2 / 8x8dct=1 / cqm=0 / deadzone=21,11 / fast_pskip=1 / chroma_qp_offset=-2 / threads=16 / lookahead_threads=4 / sliced_threads=0 / nr=0 / decimate=1 / interlaced=0 / bluray_compat=0 / constrained_intra=0 / bframes=10 / b_pyramid=0 / b_adapt=2 / b_bias=0 / direct=3 / weightb=1 / open_gop=0 / weightp=2 / keyint=250 / keyint_min=23 / scenecut=40 / intra_refresh=0 / rc=crf / mbtree=0 / crf=20.0 / qcomp=0.60 / qpmin=0 / qpmax=69 / qpstep=4 / ip_ratio=1.40 / pb_ratio=1.30 / aq=1:1.00Default : YesForced : No
AudioID : 2Format : AC-3Format/Info : Audio Coding 3Commercial name : Dolby DigitalCodec ID : A_AC3Duration : 1 h 46 minBit rate mode : ConstantBit rate : 192 kb/sChannel(s) : 2 channelsChannel layout : L RSampling rate : 48.0 kHzFrame rate : 31.250 FPS (1536 SPF)Compression mode : LossyStream size : 146 MiB (7%)Service kind : Complete MainDefault : YesForced : No

Скриншоты


[Profile]  [PM] 
Display posts:    
Reply to topic

Current time is: 20-Jul 03:03

All times are UTC + 2



You cannot post new topics in this forum
You cannot reply to topics in this forum
You cannot edit your posts in this forum
You cannot delete your posts in this forum
You cannot vote in polls in this forum
You cannot attach files in this forum
You cannot download files in this forum