Рыцари Стэйси / Выигрыш / Stacy\'s Knights (Джим Уилсон / Jim Wilson) [1983, США, драма, DVDRip] DVO (ДТВ)

Reply to topic
 
Author
Message

Satyr ®

Gender: Unknown

Longevity: 15 years

Posts: 22031

Reputation: 56 [+] [-]

Satyr · Post 05-Jun-2023 20:25

[Quote] 

Рыцари Стэйси / Выигрыш / Stacy's Knights
Страна: США
Жанр: драма
Год выпуска: 1983
Продолжительность: 01:30:38
Перевод: Профессиональный (двухголосый закадровый) ДТВ
Субтитры: нет
Оригинальная аудиодорожка: нет
Режиссер: Джим Уилсон / Jim Wilson
В ролях: Кевин Костнер, Андра Миллиан, Ева Лилит, Майк Рейнолдс, Гарт Пиллсбери
Описание: Стэйси Ланкастер обладает уникальными способностями. Она выигрывает в карты. Уилл Боннер, познакомившийся с ней и её наставницей в казино, развивает эти способности до высочайшего искусства, и они вместе начинают выкачивать деньги из игорных заведений. Владельцы казино, несущие огромные убытки, заносят Уилла и Стэйси в «черный список».
Доп. информация:
Видеоряд отсюда https://torrentsland.com.ua/forum/viewtopic.php?t=3682845
Звуковая дорожка с переводом телеканала ДТВ от RockNIK.
Синхронизацию осуществил JUSTKANT.
Фильм впервые на трекере в двухголосом переводе.
Мужские роли озвучивал Всеволод Кузнецов.
Сэмпл: https://www.sendspace.com/file/xlm3zs
Качество видео: DVDRip
Формат видео: AVI
Видео: 640x352, 25.000 fps, MPEG-4 Visual, 946 Kbps
Аудио: 48 KHz, AC3, 2 ch, 192 Kbps

MediaInfo

GeneralComplete name                            : C:\Users\Sergei\Downloads\Рыцари Стэйси (ДТВ).aviFormat                                   : AVIFormat/Info                              : Audio Video InterleaveFile size                                : 744 MiBDuration                                 : 1h 30mnOverall bit rate                         : 1 148 KbpsWriting application                      : VirtualDubMod 1.5.10.2 (build 2540/release)Writing library                          : VirtualDubMod build 2540/release
VideoID : 0Format : MPEG-4 VisualFormat settings, BVOP : 1Format settings, QPel : NoFormat settings, GMC : No warppointsFormat settings, Matrix : Default (H.263)Codec ID : DX50Codec ID/Hint : DivX 5Duration : 1h 30mnBit rate : 946 KbpsWidth : 640 pixelsHeight : 352 pixelsDisplay aspect ratio : 16:9Frame rate : 25.000 fpsColor space : YUVChroma subsampling : 4:2:0Bit depth : 8 bitsScan type : ProgressiveCompression mode : LossyBits/(Pixel*Frame) : 0.168Stream size : 613 MiB (82%)Writing library : DivX 5.2.1 (DrDivX 106) (UTC 2004-09-08)
AudioID : 1Format : AC-3Format/Info : Audio Coding 3Mode extension : CM (complete main)Format settings, Endianness : BigCodec ID : 2000Duration : 1h 30mnBit rate mode : ConstantBit rate : 192 KbpsChannel(s) : 2 channelsChannel positions : Front: L RSampling rate : 48.0 KHzFrame rate : 31.250 fps (1536 spf)Compression mode : LossyStream size : 124 MiB (17%)Alignment : Split accross interleavesInterleave, duration : 40 ms (1.00 video frame)Interleave, preload duration : 500 ms

Скриншоты

[Profile]  [PM] 
Display posts:    
Reply to topic

Current time is: 20-Jul 03:01

All times are UTC + 2



You cannot post new topics in this forum
You cannot reply to topics in this forum
You cannot edit your posts in this forum
You cannot delete your posts in this forum
You cannot vote in polls in this forum
You cannot attach files in this forum
You cannot download files in this forum