Скорость 2: Контроль над круизом / Speed 2: Cruise Control (Ян де Бонт / Jan de Bont) [1997, США, боевик, триллер, BDRip] DVO (НТВ+) + Original Eng

Reply to topic
 
Author
Message

Satyr ®

Gender: Unknown

Longevity: 15 years

Posts: 22031

Reputation: 56 [+] [-]

Satyr · Post 05-Jun-2023 20:25

[Quote] 

Скорость 2: Контроль над круизом / Speed 2: Cruise Control
Страна: США
Жанр: боевик, триллер
Год выпуска: 1997
Продолжительность: 02:05:10
Перевод: Профессиональный (двухголосый закадровый) НТВ+
Субтитры: нет
Оригинальная аудиодорожка: английский
Режиссер: Ян де Бонт / Jan de Bont
В ролях: Сандра Буллок, Джейсон Патрик, Уиллем Дефо, Темуэра Моррисон, Брайан МакКарди, Майкл Дж. Хэгерти, Коллин Кэмп, Лоис Чайлз, Френсис Гуинан
Описание: Энни предупредила своего нового ухажера, что на ее долю хватит приключений, подобных тому, что ей пришлось пережить в первом фильме, и тот соврал, что работает пляжным полицейским, не разрешая молодежи курить и мусорить. Очень скоро правда всплывает на поверхность и она узнает, что на самом деле парень работает в спецотряде и выполняет чрезвычайно опасные задания. Чтобы загладить свою вину, он приглашает Энни в развлекательную поездку на роскошном круизном лайнере по Карибскому морю. Как на грех на этом лайнере оказывается слегка свихнувшийся компьютерщик, которому фирма, построившая лайнер, не начислила в полной мере зарплату. Систему управления он знает как свои пять пальцев и терпеть произвол акул капитализма не намерен…
Доп. информация: Исходный BDRemux https://torrentsland.com.ua/forum/viewtopic.php?t=6351986.
Русская аудиодорожка записана сканала Рен-ТВ 21.05.2023 - впервые на трекере.
Сэмпл: https://disk.yandex.ru/i/38sfx31Oyogn9w
Качество видео: BDRip
Формат видео: AVI
Видео: XviD, 720x304 (2,35:1), 23,976 fps, ~1910 Kbps
Аудио 1: AC3, 2.0 mono, 48 kHz, 192 kbps - DVO НТВ+ / Рен-ТВ (Игорь Тарадайкин и Елена Борзунова)
Аудио 2: AC3, 5.1, 48 kHz, 384 kbps - english

MediaInfo

ОбщееПолное имя                               : D:\Torrents\Speed 2 Cruise Control [1997 BDRip].aviФормат                                   : AVIФормат/Информация                        : Audio Video InterleaveПрофиль формата                          : OpenDMLРазмер файла                             : 2,19 ГбайтПродолжительность                        : 2 ч. 5 м.Общий поток                              : 2 504 Кбит/секПрограмма кодирования                    : VirtualDubMod 1.5.10.2 (build 2540/release)Библиотека кодирования                   : VirtualDubMod build 2540/release
ВидеоИдентификатор : 0Формат : MPEG-4 VisualПрофиль формата : Advanced Simple@L5Настройки формата : BVOP1Параметр BVOP формата : 1Параметр QPel формата : НетПараметр GMC формата : Без точки переходаПараметр матрицы формата : Default (H.263)Идентификатор кодека : XVIDИдентификатор кодека/Подсказка : XviDПродолжительность : 2 ч. 5 м.Битрейт : 1 910 Кбит/секШирина : 720 пикселейВысота : 304 пикселяСоотношение сторон : 2,35:1Частота кадров : 23,976 (24000/1001) кадра/секЦветовое пространство : YUVСубдискретизация насыщенности : 4:2:0Битовая глубина : 8 битТип развёртки : ПрогрессивнаяМетод сжатия : С потерямиБит/(Пиксели*Кадры) : 0.364Размер потока : 1,67 Гбайт (76%)Библиотека кодирования : XviD 67
Аудио #1Идентификатор : 1Формат : AC-3Формат/Информация : Audio Coding 3Коммерческое название : Dolby DigitalИдентификатор кодека : 2000Продолжительность : 2 ч. 5 м.Вид битрейта : ПостоянныйБитрейт : 192 Кбит/секКаналы : 2 каналаChannel layout : L RЧастота : 48,0 КГцЧастота кадров : 31,250 кадров/сек (1536 SPF)Метод сжатия : С потерямиРазмер потока : 172 Мбайт (8%)Выравнивание : Разделение по промежуткамПродолжительность промежутка : 42 мс. (1,00 видеокадр)Время предзагрузки промежутка : 500 мс.Service kind : Complete Main
Аудио #2Идентификатор : 2Формат : AC-3Формат/Информация : Audio Coding 3Коммерческое название : Dolby DigitalИдентификатор кодека : 2000Продолжительность : 2 ч. 5 м.Вид битрейта : ПостоянныйБитрейт : 384 Кбит/секКаналы : 6 каналовChannel layout : L R C LFE Ls RsЧастота : 48,0 КГцЧастота кадров : 31,250 кадров/сек (1536 SPF)Метод сжатия : С потерямиРазмер потока : 344 Мбайт (15%)Выравнивание : Разделение по промежуткамПродолжительность промежутка : 42 мс. (1,00 видеокадр)Время предзагрузки промежутка : 500 мс.Service kind : Complete Main

Скриншот c названием фильма

Скриншоты

[Profile]  [PM] 
Display posts:    
Reply to topic

Current time is: 20-Jul 03:01

All times are UTC + 2



You cannot post new topics in this forum
You cannot reply to topics in this forum
You cannot edit your posts in this forum
You cannot delete your posts in this forum
You cannot vote in polls in this forum
You cannot attach files in this forum
You cannot download files in this forum