Внутри / Inside (Василис Кацупис / Vasilis Katsoupis) [2023, Греция, Германия, Бельгия, триллер, драма, BDRemux 1080p] 2х MVO (Jaskier, TVShows) + VO (BadBajo) + Sub (Rus, Eng, Fra, Spa) + Original Eng

Reply to topic
 
Author
Message

Faust ®

Gender: Unknown

Longevity: 12 years

Posts: 23187

Reputation: 0 [+] [-]

Faust · Post 06-Jun-2023 00:30

[Quote] 

Внутри
Inside

Страна: Греция, Германия, Бельгия
Жанр: Триллер, драма
Год выпуска: 2023
Продолжительность: 01:45:23
Перевод 1: Профессиональный (многоголосый закадровый) Jaskier ненормативная лексика не много
Перевод 2: Профессиональный (многоголосый закадровый) TVShows
Перевод 3: Одноголосый закадровый А.Важенин/BadBajo
Субтитры: Русские Kleinzeit ненормативная лексика, английские, французские, испанские
Оригинальная аудиодорожка: Английский
Режиссер: Василис Кацупис / Vasilis Katsoupis
В ролях: Уиллем Дефо, Жене Бервутс, Элиза Стёйк, Эндрю Блюменталь, Винсент Итон, Дэниэл Уайт, Джозия Круг, Корнелия Бух, Ава фон Фойгт, Юль Самаре
Описание: Мужчина средних лет мастерски проникает в дорогой пентхаус. Судя по всему, квартира принадлежит модному художнику и потому увешана его картинами. Герой крадет несколько произведений искусства, но не может найти главное сокровище — автопортрет хозяина. Из-за замешательства мужчина теряет время, технология «умный дом» дает сбой, напарник-хакер по рации заявляет, что не может ничего сделать. Все двери закрыты. Окна — пуленепробиваемые. Выйти из пентхауса никак нельзя. Телефона у героя нет, когда вернется хозяин — совершенно непонятно.
Спасибо kro44i за дорожку

Тип релиза: BDRemux 1080p
Контейнер: MKV
Видео: MPEG-4 AVC, 1080p, 1920:1080 (16:9), 35711 kbps, 23.976 fps
Аудио 1: АС3, 6 ch, 48 kHz, 448 kbps Русский MVO Jaskier ненормативная лексика
Аудио 2: АС3, 6 ch, 48 kHz, 448 kbps Русский MVO TVShows
Аудио 3: АС3, 6 ch, 48 kHz, 640 kbps Русский VO А.Важенин/BadBajo
Аудио 4: DTS-HD MA, 6 ch, 48 kHz, 4118 kbps, 24-bit (DTS Core 6 ch, 48 kHz, 1509 kbps, 24-bit) Английский
Формат субтитров: SRT

MediaInfo

GeneralUnique ID                                : 96989423442828181988430402560814992134 (0x48F77BC5FBCB9911663BC688BCDBCB06)Complete name                            : G:\Inside.2023.REMUX.mkvFormat                                   : MatroskaFormat version                           : Version 4File size                                : 30.5 GiBDuration                                 : 1 h 45 minOverall bit rate mode                    : VariableOverall bit rate                         : 41.4 Mb/sEncoded date                             : UTC 2023-06-05 10:46:24Writing application                      : mkvmerge v20.0.0 ('I Am The Sun') 64-bitWriting library                          : libebml v1.3.5 + libmatroska v1.4.8
VideoID : 1Format : AVCFormat/Info : Advanced Video CodecFormat profile : High@L4.1Format settings : CABAC / 2 Ref FramesFormat settings, CABAC : YesFormat settings, Reference frames : 2 framesFormat settings, GOP : M=1, N=10Codec ID : V_MPEG4/ISO/AVCDuration : 1 h 45 minBit rate mode : VariableBit rate : 35.7 Mb/sWidth : 1 920 pixelsHeight : 1 080 pixelsDisplay aspect ratio : 16:9Frame rate mode : ConstantFrame rate : 23.976 (24000/1001) FPSColor space : YUVChroma subsampling : 4:2:0Bit depth : 8 bitsScan type : ProgressiveBits/(Pixel*Frame) : 0.718Stream size : 26.3 GiB (86%)Language : EnglishDefault : YesForced : No
Audio #1ID : 2Format : AC-3Format/Info : Audio Coding 3Commercial name : Dolby DigitalCodec ID : A_AC3Duration : 1 h 45 minBit rate mode : ConstantBit rate : 448 kb/sChannel(s) : 6 channelsChannel layout : L R C LFE Ls RsSampling rate : 48.0 kHzFrame rate : 31.250 FPS (1536 SPF)Compression mode : LossyStream size : 338 MiB (1%)Title : MVO Jaskier ненормативная лексикаLanguage : RussianService kind : Complete MainDefault : YesForced : No
Audio #2ID : 3Format : AC-3Format/Info : Audio Coding 3Commercial name : Dolby DigitalCodec ID : A_AC3Duration : 1 h 45 minBit rate mode : ConstantBit rate : 448 kb/sChannel(s) : 6 channelsChannel layout : L R C LFE Ls RsSampling rate : 48.0 kHzFrame rate : 31.250 FPS (1536 SPF)Compression mode : LossyStream size : 338 MiB (1%)Title : MVO TVShowsLanguage : RussianService kind : Complete MainDefault : NoForced : No
Audio #3ID : 4Format : AC-3Format/Info : Audio Coding 3Commercial name : Dolby DigitalCodec ID : A_AC3Duration : 1 h 45 minBit rate mode : ConstantBit rate : 640 kb/sChannel(s) : 6 channelsChannel layout : L R C LFE Ls RsSampling rate : 48.0 kHzFrame rate : 31.250 FPS (1536 SPF)Compression mode : LossyStream size : 482 MiB (2%)Title : VO А.Важенин/BadBajoLanguage : RussianService kind : Complete MainDefault : NoForced : No
Audio #4ID : 5Format : DTS XLLFormat/Info : Digital Theater SystemsCommercial name : DTS-HD Master AudioCodec ID : A_DTSDuration : 1 h 45 minBit rate mode : VariableBit rate : 4 118 kb/sChannel(s) : 6 channelsChannel layout : C L R Ls Rs LFESampling rate : 48.0 kHzFrame rate : 93.750 FPS (512 SPF)Bit depth : 24 bitsCompression mode : LosslessStream size : 3.03 GiB (10%)Language : EnglishDefault : NoForced : No
Text #1ID : 6Format : UTF-8Codec ID : S_TEXT/UTF8Codec ID/Info : UTF-8 Plain TextDuration : 1 h 44 minBit rate : 26 b/sCount of elements : 496Stream size : 20.0 KiB (0%)Title : Kleinzeit ненормативная лексикаLanguage : RussianDefault : NoForced : No
Text #2ID : 7Format : UTF-8Codec ID : S_TEXT/UTF8Codec ID/Info : UTF-8 Plain TextDuration : 1 h 43 minBit rate : 20 b/sCount of elements : 540Stream size : 15.4 KiB (0%)Language : EnglishDefault : NoForced : No
Text #3ID : 8Format : UTF-8Codec ID : S_TEXT/UTF8Codec ID/Info : UTF-8 Plain TextDuration : 1 h 43 minBit rate : 19 b/sCount of elements : 427Stream size : 14.6 KiB (0%)Language : FrenchDefault : NoForced : No
Text #4ID : 9Format : UTF-8Codec ID : S_TEXT/UTF8Codec ID/Info : UTF-8 Plain TextDuration : 1 h 43 minBit rate : 15 b/sCount of elements : 400Stream size : 11.9 KiB (0%)Language : SpanishDefault : NoForced : No
Menu00:00:00.000 : en:Chapter 0100:10:00.600 : en:Chapter 0200:20:01.200 : en:Chapter 0300:30:01.800 : en:Chapter 0400:40:02.400 : en:Chapter 0500:50:03.000 : en:Chapter 0601:00:03.600 : en:Chapter 0701:10:04.200 : en:Chapter 0801:20:04.800 : en:Chapter 0901:30:05.400 : en:Chapter 1001:40:06.000 : en:Chapter 11

Скриншоты



[Profile]  [PM] 
Display posts:    
Reply to topic

Current time is: 20-Jul 03:01

All times are UTC + 2



You cannot post new topics in this forum
You cannot reply to topics in this forum
You cannot edit your posts in this forum
You cannot delete your posts in this forum
You cannot vote in polls in this forum
You cannot attach files in this forum
You cannot download files in this forum