Джон Уик 4 / John Wick: Chapter 4 (Чад Стахелски / Chad Stahelski) [2023, США, Германия, боевик, триллер, криминал, WEB-DL 1080p] 3х MVO (HDRezka Studio, Jaskier, TVShows) + Original (Eng) + Sub (Rus, Eng, Fra)

Reply to topic
 
Author
Message

Faust ®

Gender: Unknown

Longevity: 12 years

Posts: 23217

Reputation: 0 [+] [-]

Faust · Post 06-Jun-2023 00:30

[Quote] 

Джон Уик 4 / John Wick: Chapter 4- Страна: США, Германия
Жанр: боевик, триллер, криминал
Год выпуска: 2023
Продолжительность: 02:49:17
Перевод 1: Профессиональный (многоголосый закадровый) | HDRezka Studio
Перевод 2: Профессиональный (многоголосый закадровый) | Jaskier 18+
Перевод 3: Профессиональный (многоголосый закадровый) | TVShows
Субтитры: Русские (Forced, Full |FOCS и RebelProject|), английские (Full, SDH), французские
Оригинальная аудиодорожка: английский
Режиссер: Чад Стахелски / Chad Stahelski
В ролях: Киану Ривз, Донни Йен, Билл Скарсгард, Шамир Андерсон, Иэн Макшейн, Хироюки Санада, Рина Саваяма, Скотт Эдкинс, Марко Сарор, Лоренс Фишбёрн, Клэнси Браун, Лэнс Реддик, Наталия Тена, Свен Марквардт
Описание: Оставляя за собой горы трупов, Джон Уик продолжает скрываться от всевозможных наёмных убийц, и теперь охоту на него возглавляет молодой и честолюбивый член Правления по имени Маркиз. Два управляющих отелями «Континенталь» в Нью-Йорке и Осаке, решившие по старой дружбе помочь своенравному киллеру, уже жестоко за это поплатились, но внезапно Джон узнаёт способ выбраться из этой, казалось бы, безвыходной ситуации.

Качество: WEB-DL 1080p | AMAZON
Контейнер: MKV
Видео: AVC, 1920x800 (2.40:1), 23.976 fps, ~7949 kbps
Аудио №1: AC3, 48 kHz, 6 ch, 448 kbps
Аудио №2: AC3, 48 kHz, 6 ch, 384 kbps
Аудио №3: AC3, 48 kHz, 6 ch, 384 kbps
Аудио №4: E-AC3 ATMOS, 48 kHz, 6 ch, 768 kbps
Формат субтитров: softsub (SRT)

MediaInfo

GeneralUnique ID                      : 11146166394976014621684853259641256991 (0x862AC6E97E63B63624E7804DA837C1F)Complete name                  : John.Wick.Chapter.4.2023.1080p.AMZN.WEB-DL.DDP5.1.H.264-EniaHD.mkvFormat                         : MatroskaFormat version                 : Version 4File size                      : 11.7 GiBDuration                       : 2 h 49 minOverall bit rate               : 9 936 kb/sFrame rate                     : 23.976 FPSMovie name                     : John Wick: Chapter 4 (2023) - EniaHDWriting application            : mkvmerge v57.0.0 ('Till The End') 64-bitWriting library                : libebml v1.4.2 + libmatroska v1.6.4
VideoID : 1Format : AVCFormat/Info : Advanced Video CodecFormat profile : High@L4Format settings : CABAC / 4 Ref FramesFormat settings, CABAC : YesFormat settings, Reference fra : 4 framesCodec ID : V_MPEG4/ISO/AVCDuration : 2 h 49 minBit rate mode : ConstantBit rate : 7 949 kb/sNominal bit rate : 10 000 kb/sWidth : 1 920 pixelsHeight : 800 pixelsDisplay aspect ratio : 2.40:1Frame rate mode : ConstantFrame rate : 23.976 (24000/1001) FPSColor space : YUVChroma subsampling : 4:2:0Bit depth : 8 bitsScan type : ProgressiveBits/(Pixel*Frame) : 0.216Stream size : 9.40 GiB (80%)Default : YesForced : NoColor range : LimitedColor primaries : BT.709Transfer characteristics : BT.709Matrix coefficients : BT.709
Audio #1ID : 2Format : AC-3Format/Info : Audio Coding 3Commercial name : Dolby DigitalCodec ID : A_AC3Duration : 2 h 49 minBit rate mode : ConstantBit rate : 448 kb/sChannel(s) : 6 channelsChannel layout : L R C LFE Ls RsSampling rate : 48.0 kHzFrame rate : 31.250 FPS (1536 SPF)Compression mode : LossyStream size : 542 MiB (5%)Title : HDRezka StudioLanguage : RussianService kind : Complete MainDefault : YesForced : No
Audio #2ID : 3Format : AC-3Format/Info : Audio Coding 3Commercial name : Dolby DigitalCodec ID : A_AC3Duration : 2 h 49 minBit rate mode : ConstantBit rate : 384 kb/sChannel(s) : 6 channelsChannel layout : L R C LFE Ls RsSampling rate : 48.0 kHzFrame rate : 31.250 FPS (1536 SPF)Compression mode : LossyStream size : 465 MiB (4%)Title : JaskierLanguage : RussianService kind : Complete MainDefault : NoForced : No
Audio #3ID : 4Format : AC-3Format/Info : Audio Coding 3Commercial name : Dolby DigitalCodec ID : A_AC3Duration : 2 h 49 minBit rate mode : ConstantBit rate : 384 kb/sChannel(s) : 6 channelsChannel layout : L R C LFE Ls RsSampling rate : 48.0 kHzFrame rate : 31.250 FPS (1536 SPF)Compression mode : LossyStream size : 465 MiB (4%)Title : TVShowsLanguage : RussianService kind : Complete MainDefault : NoForced : No
Audio #4ID : 5Format : E-AC-3 JOCFormat/Info : Enhanced AC-3 with Joint Object CodingCommercial name : Dolby Digital Plus with Dolby AtmosCodec ID : A_EAC3Duration : 2 h 49 minBit rate mode : ConstantBit rate : 768 kb/sChannel(s) : 6 channelsChannel layout : L R C LFE Ls RsSampling rate : 48.0 kHzFrame rate : 31.250 FPS (1536 SPF)Compression mode : LossyStream size : 930 MiB (8%)Title : EnglishLanguage : EnglishService kind : Complete MainDefault : NoForced : NoComplexity index : 16Number of dynamic objects : 15Bed channel count : 1 channelBed channel configuration : LFE
Text #1ID : 6Format : UTF-8Codec ID : S_TEXT/UTF8Codec ID/Info : UTF-8 Plain TextDuration : 2 h 24 minBit rate : 2 b/sFrame rate : 0.009 FPSCount of elements : 74Stream size : 3.08 KiB (0%)Title : Russian (Forced)Language : RussianDefault : YesForced : No
Text #2ID : 7Format : UTF-8Codec ID : S_TEXT/UTF8Codec ID/Info : UTF-8 Plain TextDuration : 2 h 38 minBit rate : 41 b/sFrame rate : 0.117 FPSCount of elements : 1118Stream size : 48.5 KiB (0%)Title : Russian (FOCS & RebelProject)Language : RussianDefault : NoForced : No
Text #3ID : 8Format : UTF-8Codec ID : S_TEXT/UTF8Codec ID/Info : UTF-8 Plain TextDuration : 2 h 39 minBit rate : 21 b/sFrame rate : 0.111 FPSCount of elements : 1063Stream size : 25.2 KiB (0%)Title : EnglishLanguage : EnglishDefault : NoForced : No
Text #4ID : 9Format : UTF-8Codec ID : S_TEXT/UTF8Codec ID/Info : UTF-8 Plain TextDuration : 2 h 48 minBit rate : 28 b/sFrame rate : 0.158 FPSCount of elements : 1594Stream size : 34.7 KiB (0%)Title : English (SDH)Language : EnglishDefault : NoForced : No
Text #5ID : 10Format : UTF-8Codec ID : S_TEXT/UTF8Codec ID/Info : UTF-8 Plain TextDuration : 2 h 37 minBit rate : 22 b/sFrame rate : 0.111 FPSCount of elements : 1050Stream size : 26.1 KiB (0%)Title : FrenchLanguage : FrenchDefault : NoForced : No
Menu00:00:00.000 : en:Chapter 0100:13:44.532 : en:Chapter 0200:25:42.292 : en:Chapter 0300:38:32.604 : en:Chapter 0400:51:26.294 : en:Chapter 0501:06:42.002 : en:Chapter 0601:22:05.216 : en:Chapter 0701:36:19.738 : en:Chapter 0801:50:58.575 : en:Chapter 0902:04:17.415 : en:Chapter 1002:17:52.939 : en:Chapter 1102:27:14.000 : en:Chapter 1202:39:02.792 : en:Chapter 13

Скриншоты

[Profile]  [PM] 
Display posts:    
Reply to topic

Current time is: 25-Jul 06:09

All times are UTC + 2



You cannot post new topics in this forum
You cannot reply to topics in this forum
You cannot edit your posts in this forum
You cannot delete your posts in this forum
You cannot vote in polls in this forum
You cannot attach files in this forum
You cannot download files in this forum