Пол: Секретный материальчик / Paul (Грег Моттола / Greg Mottola) [2011, Великобритания, США, фантастика, комедия, приключения, HDRip-AVC] [Театральная версия / Theatrical Cut] DVO (Кубик в Кубе) + Original (Eng) + Sub (Rus, Eng)

Reply to topic
 
Author
Message

Satyr ®

Online

Gender: Unknown

Longevity: 15 years

Posts: 22035

Reputation: 56 [+] [-]

Satyr · Post 06-Jun-2023 04:35

[Quote] 

Пол / Paul
Год выпуска: 2011
Страна: Великобритания, США
Жанр: фантастика, комедия, приключения
Продолжительность: 01:43:40
Перевод: Профессиональный (двухголосый закадровый), Кубик в Кубе | НЕНОРМАТИВНАЯ ЛЕКСИКА
Оригинальная аудиодорожка: английская
Субтитры: русские (полные), английские (полные)
Навигация по главам: есть
Режиссер: Грег Моттола / Greg Mottola
В ролях: Саймон Пегг /Simon Pegg/, Ник Фрост /Nick Frost/, Сет Роген /Seth Rogen/, Джейсон Бейтман /Jason Bateman/, Кристен Уиг /Kristen Wiig/, Билл Хейдер /Bill Hader/
Описание: Два британских гика отправляются на одно из самых значимых фанатских событий в области фантастики — конвент ComicCon в Америке. По пути, неподалёку от известной Зоны 51, они встречают сбежавшего инопланетянина по имени Пол, который просит помочь ему добраться домой.
Исходник видео: Paul.2011.1080p.BluRay.DD5.1.x264-RightSiZE
Качество видео: HDRip
Формат: MKV
Видео кодек: H.264
Аудио кодек: AC3
Видео: 1152x488, 23,976 fps, 2104 kbps
Аудио: AC3, DD 5.1, 448 kbps, 48 kHz (Кубик в Кубе)
Аудио: AC3, DD 5.1, 448 kbps, 48 kHz (Оригинальная англоязычная озвучка)
Субтитры: русские (полные) [КиноПоиск HD] | (форсированные), английские (полные)
Скачать: SAMPLE 47.31MB
Доп. информация: За русские субтитры и дорогу с Кубиками спасибо SOFCJ. В начале и конце фильма есть небольшие моменты, где музыка на заднем фоне практически забивает озвучку, в этих местах немного её приглушил. Форсированные субтитры на неозвученные надписи. Рекламы нет.

MediaInfo

Формат : Matroska
Версия формата : Version 4
Размер файла : 2,17 Гбайт
Продолжительность : 1 ч. 43 м.
Общий поток : 3 000 Кбит/сек
Дата кодирования : UTC 2023-06-05 20:22:56
Программа кодирования : mkvmerge v8.3.0 ('Over the Horizon') 64bit
Библиотека кодирования : libebml v1.3.1 + libmatroska v1.4.2
Видео
Идентификатор : 1
Формат : AVC
Формат/Информация : Advanced Video Codec
Профиль формата : High@L4.1
Настройки формата : CABAC / 10 Ref Frames
Параметр CABAC формата : Да
Параметр RefFrames формата : 10 кадров
Идентификатор кодека : V_MPEG4/ISO/AVC
Продолжительность : 1 ч. 43 м.
Битрейт : 2 104 Кбит/сек
Ширина : 1 152 пикселя
Высота : 488 пикселей
Соотношение сторон : 2,35:1
Режим частоты кадров : Постоянный
Частота кадров : 23,976 (24000/1001) кадра/сек
Цветовое пространство : YUV
Субдискретизация насыщенности : 4:2:0
Битовая глубина : 8 бит
Тип развёртки : Прогрессивная
Бит/(Пиксели*Кадры) : 0.156
Размер потока : 1,52 Гбайт (70%)
Библиотека кодирования : x264 core 152 r2851 ba24899
Настройки программы : cabac=1 / ref=10 / deblock=1:-2:-1 / analyse=0x3:0x133 / me=umh / subme=10 / psy=1 / psy_rd=0.95:0.05 / mixed_ref=1 / me_range=32 / chroma_me=1 / trellis=2 / 8x8dct=1 / cqm=0 / deadzone=21,11 / fast_pskip=0 / chroma_qp_offset=-3 / threads=3 / lookahead_threads=1 / sliced_threads=0 / nr=0 / decimate=1 / interlaced=0 / bluray_compat=0 / constrained_intra=0 / bframes=9 / b_pyramid=2 / b_adapt=2 / b_bias=0 / direct=3 / weightb=1 / open_gop=0 / weightp=2 / keyint=240 / keyint_min=23 / scenecut=40 / intra_refresh=0 / rc_lookahead=80 / rc=2pass / mbtree=1 / bitrate=2104 / ratetol=1.0 / qcomp=0.60 / qpmin=10 / qpmax=51 / qpstep=4 / cplxblur=20.0 / qblur=0.5 / ip_ratio=1.40 / aq=1:1.00
Язык : English
Default : Да
Forced : Нет
Аудио #1
Идентификатор : 2
Формат : AC-3
Формат/Информация : Audio Coding 3
Коммерческое название : Dolby Digital
Идентификатор кодека : A_AC3
Продолжительность : 1 ч. 43 м.
Вид битрейта : Постоянный
Битрейт : 448 Кбит/сек
Каналы : 6 каналов
Channel layout : L R C LFE Ls Rs
Частота : 48,0 КГц
Частота кадров : 31,250 кадров/сек (1536 SPF)
Метод сжатия : С потерями
Размер потока : 332 Мбайт (15%)
Заголовок : Кубик в Кубе
Язык : Russian
Service kind : Complete Main
Default : Да
Forced : Нет
Аудио #2
Идентификатор : 3
Формат : AC-3
Формат/Информация : Audio Coding 3
Коммерческое название : Dolby Digital
Идентификатор кодека : A_AC3
Продолжительность : 1 ч. 43 м.
Вид битрейта : Постоянный
Битрейт : 448 Кбит/сек
Каналы : 6 каналов
Channel layout : L R C LFE Ls Rs
Частота : 48,0 КГц
Частота кадров : 31,250 кадров/сек (1536 SPF)
Метод сжатия : С потерями
Размер потока : 332 Мбайт (15%)
Заголовок : Оригинальная дорожка
Язык : English
Service kind : Complete Main
Default : Нет
Forced : Нет
Текст #1
Идентификатор : 4
Формат : UTF-8
Идентификатор кодека : S_TEXT/UTF8
Идентификатор кодека/Информация : UTF-8 Plain Text
Продолжительность : 1 ч. 37 м.
Битрейт : 1 бит/сек
Частота кадров : 0,005 кадр/сек
Count of elements : 32
Размер потока : 1,24 Кбайт (0%)
Заголовок : forced
Язык : Russian
Default : Да
Forced : Нет
Текст #2
Идентификатор : 5
Формат : UTF-8
Идентификатор кодека : S_TEXT/UTF8
Идентификатор кодека/Информация : UTF-8 Plain Text
Продолжительность : 1 ч. 37 м.
Битрейт : 104 бит/сек
Частота кадров : 0,257 кадр/сек
Count of elements : 1509
Размер потока : 75,0 Кбайт (0%)
Заголовок : КиноПоиск HD
Язык : Russian
Default : Нет
Forced : Нет
Текст #3
Идентификатор : 6
Формат : UTF-8
Идентификатор кодека : S_TEXT/UTF8
Идентификатор кодека/Информация : UTF-8 Plain Text
Продолжительность : 1 ч. 37 м.
Битрейт : 67 бит/сек
Частота кадров : 0,262 кадр/сек
Count of elements : 1531
Размер потока : 47,8 Кбайт (0%)
Язык : English
Default : Нет
Forced : Нет
Меню
00:00:00.000 : en:Chapter 1
00:05:25.325 : en:Chapter 2
00:11:20.763 : en:Chapter 3
00:16:52.637 : en:Chapter 4
00:23:53.891 : en:Chapter 5
00:28:58.445 : en:Chapter 6
00:31:24.591 : en:Chapter 7
00:36:50.333 : en:Chapter 8
00:40:54.619 : en:Chapter 9
00:43:57.426 : en:Chapter 10
00:51:13.320 : en:Chapter 11
00:56:30.387 : en:Chapter 12
01:00:42.347 : en:Chapter 13
01:07:01.142 : en:Chapter 14
01:11:41.756 : en:Chapter 15
01:18:28.412 : en:Chapter 16
01:21:06.487 : en:Chapter 17
01:26:53.125 : en:Chapter 18
01:30:45.940 : en:Chapter 19
01:35:29.641 : en:Chapter 20

Скриншоты

[Profile]  [PM] 
Display posts:    
Reply to topic

Current time is: 21-Jul 22:32

All times are UTC + 2



You cannot post new topics in this forum
You cannot reply to topics in this forum
You cannot edit your posts in this forum
You cannot delete your posts in this forum
You cannot vote in polls in this forum
You cannot attach files in this forum
You cannot download files in this forum