Гипнотик / Hypnotic (Роберт Родригес / Robert Rodriguez) [2023, США, Боевик, триллер, детектив, WEB-DL 1080p] +2x MVO (HDRezka Studio, TVShows) + Sub Rus, Eng + Original Eng

Reply to topic
 
Author
Message

Faust ®

Gender: Unknown

Longevity: 12 years

Posts: 23187

Reputation: 0 [+] [-]

Faust · Post 06-Jun-2023 16:50

[Quote] 

Гипнотик / Hypnotic- Страна: США
Студия: Blue Rider Pictures, Double R Productions (II), Hoosegow Productions
Жанр: Боевик, триллер, детектив
Год выпуска: 2023
Продолжительность: 01:33:18-Перевод 1: Профессиональный (многоголосый закадровый)
HDRezka Studio
Перевод 2: Профессиональный (многоголосый закадровый)
TVShows
Субтитры: Русские (forced (HDRezka), full), английские
Оригинальная аудиодорожка: английский-Режиссер: Роберт Родригес / Robert Rodriguez-В ролях: Бен Аффлек, Уильям Фихтнер, Алиси Брага, Дж.Д. Пардо, Дайо Окении, Джефф Фэйи, Джеки Эрл Хейли, Зейн Хольц, Рубен Хавьер Кабальеро, Келли Фрай-Описание: В последнее время в жизни главного героя происходят странные вещи. Исчезают люди, в том числе и его близкие. Главный герой расследует загадочное ограбление. Во время расследования этого сложного дела пропадает дочь детектива, Минни. Рурк понимает, что его расследование связано с исчезновением девочки. В это же время Дэниел узнает, что правительство разработало секретную программу. Она также имеет отношение к преступлению, которое расследует детектив.
-Релиз от New-Team@JNS82-Тип релиза: WEB-DL 1080p
Контейнер: MKV
Видео: MPEG-4 AVC, 1920:800 (2.40:1), 6854 kbps, 23.976 fps
Аудио 1: 48.0 kHz, AC3, 6 ch, 448 Кбит/с | RUS | HDRezka Studio
Аудио 2: 48.0 kHz, AC3, 6 ch, 384 Кбит/с | RUS | TVShows
Аудио 3: 48.0 kHz, E-AC3, 6 ch, 640 Кбит/с| ENG |

MediaInfo

General
Complete name : Downloads\Hypnotic.2023.1080p.WEB-DL_от New-Team_JNS82.mkv Format : Matroska Format version : Version 4 / Version 2 File size : 5.43 GiB Duration : 1 h 33 min Overall bit rate : 8 329 kb/s Writing application : mkvmerge v59.0.0 ('Shining Star') 64-bit Writing library : libebml v1.4.2 + libmatroska v1.6.4 Video #1 ID : 1 Format : AVC Format/Info : Advanced Video Codec Format profile : High@L4 Format settings : CABAC / 4 Ref Frames Format settings, CABAC : Yes Format settings, ReFrames : 4 frames Codec ID : V_MPEG4/ISO/AVC Duration : 1 h 33 min Bit rate mode : Constant Bit rate : 6 854 kb/s Nominal bit rate : 10 000 kb/s Width : 1 920 pixels Height : 800 pixels Display aspect ratio : 2.40:1 Frame rate mode : Constant Frame rate : 23.976 (24000/1001) FPS Color space : YUV Chroma subsampling : 4:2:0 Bit depth : 8 bits Scan type : Progressive Bits/(Pixel*Frame) : 0.186 Stream size : 4.47 GiB (82%) Title : NT Language : English Default : Yes Forced : No Color range : Limited Color primaries : BT.709 Transfer characteristics : BT.709 Matrix coefficients : BT.709 Audio #2 ID : 2 Format : AC-3 Format/Info : Audio Coding 3 Codec ID : A_AC3 Duration : 1 h 33 min Bit rate mode : Constant Bit rate : 448 kb/s Channel(s) : 6 channels Channel positions : Front: L C R, Side: L R, LFE Sampling rate : 48.0 kHz Frame rate : 31.250 FPS (1536 SPF) Bit depth : 16 bits Compression mode : Lossy Stream size : 299 MiB (5%) Title : MVO - HDRezka Studio Language : Russian Service kind : Complete Main Default : Yes Forced : No Audio #3 ID : 3 Format : AC-3 Format/Info : Audio Coding 3 Codec ID : A_AC3 Duration : 1 h 33 min Bit rate mode : Constant Bit rate : 384 kb/s Channel(s) : 6 channels Channel positions : Front: L C R, Side: L R, LFE Sampling rate : 48.0 kHz Frame rate : 31.250 FPS (1536 SPF) Bit depth : 16 bits Compression mode : Lossy Stream size : 256 MiB (5%) Title : MVO - TVShows Language : Russian Service kind : Complete Main Default : No Forced : No Audio #4 ID : 4 Format : E-AC-3 Format/Info : Enhanced Audio Coding 3 Codec ID : A_EAC3 Duration : 1 h 33 min Bit rate mode : Constant Bit rate : 640 kb/s Channel(s) : 6 channels Channel positions : Front: L C R, Side: L R, LFE Sampling rate : 48.0 kHz Frame rate : 187.500 FPS (256 SPF) Compression mode : Lossy Stream size : 427 MiB (8%) Language : English Service kind : Complete Main Default : No Forced : No Text #5 ID : 5 Format : UTF-8 Codec ID : S_TEXT/UTF8 Codec ID/Info : UTF-8 Plain Text Duration : 1 h 20 min Bit rate : 3 b/s Count of elements : 51 Stream size : 2.22 KiB (0%) Title : forced Language : Russian Default : Yes Forced : No Text #6 ID : 6 Format : UTF-8 Codec ID : S_TEXT/UTF8 Codec ID/Info : UTF-8 Plain Text Duration : 1 h 25 min Bit rate : 69 b/s Count of elements : 1099 Stream size : 43.5 KiB (0%) Title : full Language : Russian Default : No Forced : No Text #7 ID : 7 Format : UTF-8 Codec ID : S_TEXT/UTF8 Codec ID/Info : UTF-8 Plain Text Duration : 1 h 25 min Bit rate : 43 b/s Count of elements : 1116 Stream size : 27.2 KiB (0%) Language : English Default : No Forced : No Text #8 ID : 8 Format : UTF-8 Codec ID : S_TEXT/UTF8 Codec ID/Info : UTF-8 Plain Text Duration : 1 h 26 min Bit rate : 46 b/s Count of elements : 1284 Stream size : 29.7 KiB (0%) Title : SDH Language : English Default : No Forced : No

Скриншоты

[Profile]  [PM] 
Display posts:    
Reply to topic

Current time is: 20-Jul 03:32

All times are UTC + 2



You cannot post new topics in this forum
You cannot reply to topics in this forum
You cannot edit your posts in this forum
You cannot delete your posts in this forum
You cannot vote in polls in this forum
You cannot attach files in this forum
You cannot download files in this forum