Ты убиваешь меня / You\'re Killing Me (Бет Ханна / Hanna Beth, Джеррен Лаудер / Jerren Lauder) [2023, США, Боевик, триллер, детектив, WEB-DL 1080p] MVO (TVShows) + MVO (Jaskier) + Sub Eng + Original Eng

Reply to topic
 
Author
Message

Faust ®

Gender: Unknown

Longevity: 12 years

Posts: 23187

Reputation: 0 [+] [-]

Faust · Post 06-Jun-2023 16:50

[Quote] 

Ты убиваешь меня / You're Killing Me- Страна: США
Студия: Iris Indie International
Жанр: Боевик, триллер, детектив
Год выпуска: 2023
Продолжительность: 01:34:54-Перевод 1: Профессиональный (многоголосый закадровый)
TVShows
Перевод 2: Профессиональный (многоголосый закадровый)
Jaskier 18 +
Субтитры: английские
Оригинальная аудиодорожка: английский-Режиссер: Бет Ханна / Hanna Beth, Джеррен Лаудер / Jerren Lauder-В ролях: МакКалей Миллер, Энн Хэч, Дермот Малруни, Брайс Энтони Хеллер Хеллер, Виль Дойснер, Кейара Миллинер, Моргана Ван Пиблс, Джейсон Уорнер Смит, Ханна Селеста, Хелен Генри, Николас Кениг, Калли Терины-Описание: В фильме рассказывается история ученицы подготовительной школы Иден Мёрфи, которая мечтает поступить в элитный колледж, несмотря на то, что она была самой бедной ученицей в своей школе, и тот факт, что одна из ее одноклассниц, Мелисса Браун, пропала неделю назад. Для достижения своей цели она планирует получить рекомендательные письма от двух самых богатых жителей своего городка, чей сын, Барретт Шреддер, учится в её школе. Иден приводит свою подругу Зару, чтобы она помогла ей проникнуть на ежегодную вечеринку Барретта. Однако, они сталкиваются с доказательствами того, что семья Барреттов была причастна к исчезновению Мелиссы, и вскоре девушки оказываются в ловушке элиты. Но они не сдаются без боя.
-Релиз от New-Team@JNS82-Тип релиза: WEB-DL 1080p
Контейнер: MKV
Видео: MPEG-4 AVC, 1920x800 (2.40:1), 8058 kb/s, 23.976 fps
Аудио 1: 48.0 kHz, AC3, 6 ch, 384 Кбит/с | TVShows
Аудио 2: 48.0 kHz, AC3, 6 ch, 384 Кбит/с | Jaskier | 18 +

MediaInfo

General
Complete name : Downloads\Youre.Killing.Me.2023.1080p.WEB-DL_от New-Team_JNS82.mkv Format : Matroska Format version : Version 4 / Version 2 File size : 6.28 GiB Duration : 1 h 34 min Overall bit rate : 9 468 kb/s Writing application : mkvmerge v59.0.0 ('Shining Star') 64-bit Writing library : libebml v1.4.2 + libmatroska v1.6.4 Video #1 ID : 1 Format : AVC Format/Info : Advanced Video Codec Format profile : High@L4 Format settings : CABAC / 4 Ref Frames Format settings, CABAC : Yes Format settings, ReFrames : 4 frames Codec ID : V_MPEG4/ISO/AVC Duration : 1 h 34 min Bit rate mode : Constant Bit rate : 8 058 kb/s Nominal bit rate : 10 000 kb/s Width : 1 920 pixels Height : 800 pixels Display aspect ratio : 2.40:1 Frame rate mode : Constant Frame rate : 23.976 (24000/1001) FPS Color space : YUV Chroma subsampling : 4:2:0 Bit depth : 8 bits Scan type : Progressive Bits/(Pixel*Frame) : 0.219 Stream size : 5.34 GiB (85%) Default : Yes Forced : No Color range : Limited Color primaries : BT.709 Transfer characteristics : BT.709 Matrix coefficients : BT.709 Audio #2 ID : 2 Format : AC-3 Format/Info : Audio Coding 3 Codec ID : A_AC3 Duration : 1 h 34 min Bit rate mode : Constant Bit rate : 384 kb/s Channel(s) : 6 channels Channel positions : Front: L C R, Side: L R, LFE Sampling rate : 48.0 kHz Frame rate : 31.250 FPS (1536 SPF) Bit depth : 16 bits Compression mode : Lossy Stream size : 261 MiB (4%) Title : MVO - TVShows Language : Russian Service kind : Complete Main Default : Yes Forced : No Audio #3 ID : 3 Format : AC-3 Format/Info : Audio Coding 3 Codec ID : A_AC3 Duration : 1 h 34 min Bit rate mode : Constant Bit rate : 384 kb/s Channel(s) : 6 channels Channel positions : Front: L C R, Side: L R, LFE Sampling rate : 48.0 kHz Frame rate : 31.250 FPS (1536 SPF) Bit depth : 16 bits Compression mode : Lossy Stream size : 261 MiB (4%) Title : MVO - Jaskier Language : Russian Service kind : Complete Main Default : No Forced : No Audio #4 ID : 4 Format : E-AC-3 Format/Info : Enhanced Audio Coding 3 Codec ID : A_EAC3 Duration : 1 h 34 min Bit rate mode : Constant Bit rate : 640 kb/s Channel(s) : 6 channels Channel positions : Front: L C R, Side: L R, LFE Sampling rate : 48.0 kHz Frame rate : 187.500 FPS (256 SPF) Compression mode : Lossy Stream size : 434 MiB (7%) Language : English Service kind : Complete Main Default : No Forced : No Text #5 ID : 5 Format : UTF-8 Codec ID : S_TEXT/UTF8 Codec ID/Info : UTF-8 Plain Text Duration : 1 h 30 min Bit rate : 56 b/s Count of elements : 1541 Stream size : 37.5 KiB (0%) Language : English Default : No Forced : No

Скриншоты


[Profile]  [PM] 
Display posts:    
Reply to topic

Current time is: 20-Jul 03:31

All times are UTC + 2



You cannot post new topics in this forum
You cannot reply to topics in this forum
You cannot edit your posts in this forum
You cannot delete your posts in this forum
You cannot vote in polls in this forum
You cannot attach files in this forum
You cannot download files in this forum