Бун / Boon (Дерек Прэсли / Derek Presley) [2022, США, Боевик, триллер, драма, криминал, детектив, BDRemux 1080p] Dub (Zone Vision) + MVO (Jaskier) + Original (Eng) + Sub (rus, eng)

Reply to topic
 
Author
Message

Faust ®

Gender: Unknown

Longevity: 12 years

Posts: 23202

Reputation: 0 [+] [-]

Faust · Post 06-Jun-2023 16:50

[Quote] 

Бун / Boon
Страна: США
Жанр: Боевик, триллер, драма, криминал, детектив
Год выпуска: 2022
Продолжительность: 01:35:56-Перевод 1: Профессиональный (дублированный) | Zone Vision
Перевод 2: Профессиональный (многоголосый закадровый) | Jaskier
Cубтитры: Русские (Full), Английские (Full, SDH)
Оригинальная аудиодорожка: Английский-Режиссёр: Дерек Прэсли / Derek Presley
В ролях: Нил Макдонаф, Томми Флэнаган, Джейсон Скотт Ли, Джеймс Мадио, Кристина Очоа, Гэбриэлль Картерис, Деметриус Гросс, Кристиана Сидел, Пэт Монахэн, Джон Патрик Джордан, Джейк Мелроз
Описание: Бун — один из самых опасных наёмных убийц в Америке. После жестокой перестрелки его находит раненым мальчик-подросток, живущий с матерью Кэтрин. Благодаря её заботам Бун быстро встаёт на ноги. Он с удивлением узнаёт, что Кэтрин — пастор в протестантской общине и одновременно невольная соучастница преступной аферы. А всё из-за того, что её покойный муж задолжал бандитской шайке. Делать нечего: Бун встаёт на защиту вдовы и её сына, путая карты очень злым и беспощадным людям.- -Тип релиза: BDRemux 1080p
Контейнер: MKV-Видео: AVC/H.264, 1920x1080, 22.9 Mb/s, 23.976 fps
Аудио 1: Русский | E-AC-3, 6 ch, 448 Kbps, 48.0 kHz Dub Zone Vision
Аудио 2: Русский | AC-3, 6 ch, 384 Kbps, 48.0 kHz MVO Jaskier
Аудио 3: Английский | DTS-HD MA, 6 ch, 1383 Kbps, 48.0 kHz, 16-bit (DTS Core: 5.1 / 48 kHz / 768 kbps / 16-bit)
Формат субтитров: softsub (SRT)-

MediaInfo

General
Unique ID                                : 34207147435318280610770191257902326783 (0x19BC0E94A7564E13346E7EC3A1A923FF)
Complete name                            : /Volumes/Promise Pegasus/Boon.2022.BDRemux.1080p.pk.mkv
Format                                   : Matroska
Format version                           : Version 4
File size                                : 16.8 GiB
Duration                                 : 1 h 35 min
Overall bit rate mode                    : Variable
Overall bit rate                         : 25.1 Mb/s
Frame rate                               : 23.976 FPS
Movie name                               : Boon 2022 BDRemux 1080p pk
Encoded date                             : 2023-06-04 13:24:25 UTC
Writing application                      : mkvmerge v73.0.0 ('25 or 6 to 4') 64-bit
Writing library                          : libebml v1.4.4 + libmatroska v1.7.1
Cover                                    : Yes
Attachments                              : cover.jpg / small_cover.jpg
Video
ID                                       : 1
Format                                   : AVC
Format/Info                              : Advanced Video Codec
Format profile                           : High@L4.1
Format settings                          : CABAC / 2 Ref Frames
Format settings, CABAC                   : Yes
Format settings, Reference frames        : 2 frames
Codec ID                                 : V_MPEG4/ISO/AVC
Duration                                 : 1 h 35 min
Bit rate mode                            : Variable
Bit rate                                 : 22.9 Mb/s
Maximum bit rate                         : 30.2 Mb/s
Width                                    : 1 920 pixels
Height                                   : 1 080 pixels
Display aspect ratio                     : 16:9
Frame rate mode                          : Constant
Frame rate                               : 23.976 (24000/1001) FPS
Color space                              : YUV
Chroma subsampling                       : 4:2:0
Bit depth                                : 8 bits
Scan type                                : Progressive
Bits/(Pixel*Frame)                       : 0.460
Stream size                              : 15.3 GiB (91%)
Language                                 : English
Default                                  : Yes
Forced                                   : No
Audio #1
ID                                       : 2
Format                                   : E-AC-3
Format/Info                              : Enhanced AC-3
Commercial name                          : Dolby Digital Plus
Codec ID                                 : A_EAC3
Duration                                 : 1 h 35 min
Bit rate mode                            : Constant
Bit rate                                 : 448 kb/s
Channel(s)                               : 6 channels
Channel layout                           : L R C LFE Ls Rs
Sampling rate                            : 48.0 kHz
Frame rate                               : 31.250 FPS (1536 SPF)
Compression mode                         : Lossy
Stream size                              : 307 MiB (2%)
Title                                    : Russian Dub Zone Vision
Language                                 : Russian
Service kind                             : Complete Main
Default                                  : Yes
Forced                                   : No
Audio #2
ID                                       : 3
Format                                   : AC-3
Format/Info                              : Audio Coding 3
Commercial name                          : Dolby Digital
Codec ID                                 : A_AC3
Duration                                 : 1 h 35 min
Bit rate mode                            : Constant
Bit rate                                 : 384 kb/s
Channel(s)                               : 6 channels
Channel layout                           : L R C LFE Ls Rs
Sampling rate                            : 48.0 kHz
Frame rate                               : 31.250 FPS (1536 SPF)
Compression mode                         : Lossy
Stream size                              : 263 MiB (2%)
Title                                    : Russian MVO Jaskier
Language                                 : Russian
Service kind                             : Complete Main
Default                                  : No
Forced                                   : No
Audio #3
ID                                       : 4
Format                                   : DTS XLL
Format/Info                              : Digital Theater Systems
Commercial name                          : DTS-HD Master Audio
Codec ID                                 : A_DTS
Duration                                 : 1 h 35 min
Bit rate mode                            : Variable
Bit rate                                 : 1 383 kb/s
Channel(s)                               : 6 channels
Channel layout                           : C L R Ls Rs LFE
Sampling rate                            : 48.0 kHz
Frame rate                               : 93.750 FPS (512 SPF)
Bit depth                                : 16 bits
Compression mode                         : Lossless
Stream size                              : 949 MiB (6%)
Title                                    : English Original
Language                                 : English
Default                                  : No
Forced                                   : No
Text #1
ID                                       : 5
Format                                   : UTF-8
Codec ID                                 : S_TEXT/UTF8
Codec ID/Info                            : UTF-8 Plain Text
Duration                                 : 1 h 29 min
Bit rate                                 : 60 b/s
Frame rate                               : 0.156 FPS
Count of elements                        : 838
Stream size                              : 39.5 KiB (0%)
Title                                    : Russian full
Language                                 : Russian
Default                                  : No
Forced                                   : No
Text #2
ID                                       : 6
Format                                   : UTF-8
Codec ID                                 : S_TEXT/UTF8
Codec ID/Info                            : UTF-8 Plain Text
Duration                                 : 1 h 28 min
Bit rate                                 : 37 b/s
Frame rate                               : 0.157 FPS
Count of elements                        : 831
Stream size                              : 24.1 KiB (0%)
Title                                    : English full
Language                                 : English
Default                                  : No
Forced                                   : No
Text #3
ID                                       : 7
Format                                   : UTF-8
Codec ID                                 : S_TEXT/UTF8
Codec ID/Info                            : UTF-8 Plain Text
Duration                                 : 1 h 31 min
Bit rate                                 : 42 b/s
Frame rate                               : 0.188 FPS
Count of elements                        : 1029
Stream size                              : 28.2 KiB (0%)
Title                                    : English SDH
Language                                 : English
Default                                  : No
Forced                                   : No
Menu
00:00:00.000                             : en:Chapter 01
00:06:45.739                             : en:Chapter 02
00:17:33.761                             : en:Chapter 03
00:25:04.294                             : en:Chapter 04
00:35:36.009                             : en:Chapter 05
00:43:35.279                             : en:Chapter 06
00:49:54.617                             : en:Chapter 07
01:00:07.771                             : en:Chapter 08
01:10:01.864                             : en:Chapter 09
01:17:05.454                             : en:Chapter 10
01:26:07.996                             : en:Chapter 11
01:30:00.812                             : en:Chapter 12

Скриншоты

[Profile]  [PM] 
Display posts:    
Reply to topic

Current time is: 21-Jul 22:31

All times are UTC + 2



You cannot post new topics in this forum
You cannot reply to topics in this forum
You cannot edit your posts in this forum
You cannot delete your posts in this forum
You cannot vote in polls in this forum
You cannot attach files in this forum
You cannot download files in this forum