Человеческий капитал / Human Capital (Марк Мейерс / Marc Meyers) [2019, США, драма, WEB-DL 1080p] Dub + Sub (Eng, Spa) + Original Eng

Reply to topic
 
Author
Message

Faust ®

Gender: Unknown

Longevity: 12 years

Posts: 23187

Reputation: 0 [+] [-]

Faust · Post 06-Jun-2023 20:55

[Quote] 

Человеческий капитал / Human Capital
Страна: США
Жанр: драма
Год выпуска: 2019
Продолжительность: 01:37:43
Перевод: Профессиональный (дублированный)
Субтитры: английские, испанские
Оригинальная аудиодорожка: английский
Режиссер: Марк Мейерс / Marc Meyers
В ролях: Лив Шрайбер, Мариса Томей, Питер Сарсгаард, Майя Хоук, Алекс Вулф, Бетти Гэбриел, Аасиф Мандви, Пол Спаркс, Фред Хехингер, Джон Вентимилья
Описание: Импульсивная деловая сделка объединяет две семьи из разных социальных слоев, что приводит к трагическим последствиям. В отчаянной авантюре агент по недвижимости ставит на карту все свои средства к существованию, богатая домохозяйка сталкивается с всепоглощающей пустотой своей жизни, а девочка-подросток впервые по-настоящему влюбляется.

Доп. информация: К скачанному с зарубежного трекера WEB-DL 1080p добавлена дорожка с русской озвучкой, взятая из раздачи dalemake.
Сэмпл: http://sendfile.su/1669678
Тип релиза: WEB-DL 1080p
Контейнер: MKV
Видео: AVC, 1920x816, 2.35:1, 23.976 fps, 12400 kbps
Аудио: AC3 Dolby Digital, 48 kHz, 3/2 (L,C,R,l,r) + LFE ch, 384 kbps, Russian DUB
Аудио 2: AC3 Dolby Digital, 48 kHz, 3/2 (L,C,R,l,r) + LFE ch, 384 kbps, Original
Формат субтитров: softsub (SRT)

MediaInfo

GeneralUnique ID                                : 312553807175929356211384221680565749801 (0xEB23AC74252E244CA3701A53580C0829)Complete name                            : C:\Downloads\Human.Capital.2019.1080p.WEB-DL.mkvFormat                                   : MatroskaFormat version                           : Version 4File size                                : 6.14 GiBDuration                                 : 1 h 37 minOverall bit rate mode                    : VariableOverall bit rate                         : 8 989 kb/sFrame rate                               : 23.976 FPSEncoded date                             : 2023-06-05 16:59:05 UTCWriting application                      : mkvmerge v38.0.0 ('The Silent Type') 64-bitWriting library                          : libebml v1.3.9 + libmatroska v1.5.2
VideoID : 1Format : AVCFormat/Info : Advanced Video CodecFormat profile : High@L4Format settings : CABAC / 4 Ref FramesFormat settings, CABAC : YesFormat settings, Reference frames : 4 framesCodec ID : V_MPEG4/ISO/AVCDuration : 1 h 37 minBit rate mode : VariableBit rate : 8 250 kb/sMaximum bit rate : 12.4 Mb/sWidth : 1 920 pixelsHeight : 816 pixelsDisplay aspect ratio : 2.35:1Frame rate mode : ConstantFrame rate : 23.976 (24000/1001) FPSColor space : YUVChroma subsampling : 4:2:0Bit depth : 8 bitsScan type : ProgressiveBits/(Pixel*Frame) : 0.220Stream size : 5.61 GiB (91%)Writing library : x264 core 157 r2965 861cec4Encoding settings : cabac=1 / ref=4 / deblock=1:0:0 / analyse=0x3:0x113 / me=hex / subme=7 / psy=1 / psy_rd=1.00:0.00 / mixed_ref=1 / me_range=16 / chroma_me=1 / trellis=1 / 8x8dct=1 / cqm=0 / deadzone=21,11 / fast_pskip=1 / chroma_qp_offset=-2 / threads=25 / lookahead_threads=4 / sliced_threads=0 / nr=0 / decimate=1 / interlaced=0 / bluray_compat=0 / constrained_intra=0 / bframes=3 / b_pyramid=2 / b_adapt=1 / b_bias=0 / direct=1 / weightb=1 / open_gop=0 / weightp=2 / keyint=96 / keyint_min=96 / scenecut=40 / intra_refresh=0 / rc_lookahead=40 / rc=2pass / mbtree=1 / bitrate=8250 / ratetol=1.0 / qcomp=0.60 / qpmin=0 / qpmax=69 / qpstep=4 / cplxblur=20.0 / qblur=0.5 / vbv_maxrate=12375 / vbv_bufsize=6187 / nal_hrd=vbr / filler=0 / ip_ratio=1.40 / aq=1:1.00Default : YesForced : NoColor range : LimitedColor primaries : BT.709Transfer characteristics : BT.709Matrix coefficients : BT.709
Audio #1ID : 2Format : AC-3Format/Info : Audio Coding 3Commercial name : Dolby DigitalCodec ID : A_AC3Duration : 1 h 37 minBit rate mode : ConstantBit rate : 384 kb/sChannel(s) : 6 channelsChannel layout : L R C LFE Ls RsSampling rate : 48.0 kHzFrame rate : 31.250 FPS (1536 SPF)Compression mode : LossyStream size : 268 MiB (4%)Title : DUBLanguage : RussianService kind : Complete MainDefault : YesForced : No
Audio #2ID : 3Format : AC-3Format/Info : Audio Coding 3Commercial name : Dolby DigitalCodec ID : A_AC3Duration : 1 h 37 minBit rate mode : ConstantBit rate : 384 kb/sChannel(s) : 6 channelsChannel layout : L R C LFE Ls RsSampling rate : 48.0 kHzFrame rate : 31.250 FPS (1536 SPF)Compression mode : LossyStream size : 268 MiB (4%)Title : EnglishLanguage : EnglishService kind : Complete MainDefault : NoForced : No
Text #1ID : 4Format : UTF-8Codec ID : S_TEXT/UTF8Codec ID/Info : UTF-8 Plain TextDuration : 1 h 34 minBit rate : 64 b/sFrame rate : 0.244 FPSCount of elements : 1386Stream size : 44.7 KiB (0%)Title : SDHLanguage : EnglishDefault : NoForced : No
Text #2ID : 5Format : UTF-8Codec ID : S_TEXT/UTF8Codec ID/Info : UTF-8 Plain TextDuration : 1 h 31 minBit rate : 64 b/sFrame rate : 0.246 FPSCount of elements : 1347Stream size : 43.1 KiB (0%)Title : SDHLanguage : SpanishDefault : NoForced : No
Menu00:00:00.000 : en:100:01:09.000 : en:200:11:54.000 : en:300:23:16.000 : en:400:32:20.000 : en:500:41:52.000 : en:600:51:22.000 : en:700:59:08.000 : en:801:12:28.000 : en:901:20:32.000 : en:1001:31:33.000 : en:11

Скриншоты

[Profile]  [PM] 
Display posts:    
Reply to topic

Current time is: 20-Jul 03:29

All times are UTC + 2



You cannot post new topics in this forum
You cannot reply to topics in this forum
You cannot edit your posts in this forum
You cannot delete your posts in this forum
You cannot vote in polls in this forum
You cannot attach files in this forum
You cannot download files in this forum