Ничто не сравнится. Документальный фильм о жизни и наследии Sinead O\'Connor / Nothing Compares (Kathryn Ferguson) [2022, documentary, WEB-DL 1080p]

Reply to topic
 
Author
Message

Atila ®

Gender: Unknown

Longevity: 12 years

Posts: 3267

Reputation: 0 [+] [-]

Atila · Post 06-Jun-2023 20:55

[Quote] 

Ничто не сравнится. Документальный фильм о жизни и наследии Sinead O'Connor / Nothing Compares
Год выпуска: 2022
Страна: United Kingdom / Ireland
Студия: Showtime
Жанр: documentary
Продолжительность: 01:35:53
Перевод: Субтитры
Русские субтитры: есть
Режиссер: Kathryn Ferguson
Описание: Документальный художественный фильм 2022 года режиссёра Кэтрин Фергюсон. В нем рассказывается о жизни и наследии Шинейд О'Коннор с упором на период с 1987 по 1993 год.
Из Википедии: Это история феноменального восхождения Шинейд О’Коннор к всемирной славе и того, как ее иконоборческая личность привела к ее изгнанию из мейнстрима поп-музыки. Сосредоточившись на ее пророческих словах и делах в период с 1987 по 1993 год, фильм отражает наследие этого бесстрашного первопроходца через призму современных феминисток.
Тип релиза: WEB-DL 1080p
Контейнер: MKV
Видео: Advanced Video Codec, 16:9, 8 403 Кбит/сек, 25,000 кадров/сек
Аудио: AAC 5.1
Формат субтитров: softsub (SRT)

MediaInfo

ОбщееУникальный идентификатор                 : 124458192895007967880267488561680882007 (0x5DA1C6AB596791519BD20A2BD1981957)Полное имя                               : \\Nothing.Compares.2022.INTERNAL.1080p.WEB.H264-OPUS.mkvФормат                                   : MatroskaВерсия формата                           : Version 4Размер файла                             : 6,05 ГбайтПродолжительность                        : 1 ч. 35 м.Общий поток                              : 9 045 Кбит/секЧастота кадров                           : 25,000 кадров/секПрограмма кодирования                    : mkvmerge v66.0.0 ('Josie') 64-bitБиблиотека кодирования                   : libebml v1.4.2 + libmatroska v1.6.4
ВидеоИдентификатор : 1Формат : AVCФормат/Информация : Advanced Video CodecПрофиль формата : High@L4Настройки формата : CABAC / 4 Ref FramesПараметр CABAC формата : ДаПараметр RefFrames формата : 4 кадраИдентификатор кодека : V_MPEG4/ISO/AVCПродолжительность : 1 ч. 35 м.Вид битрейта : ПостоянныйБитрейт : 8 403 Кбит/секНоминальный битрейт : 10 000 Кбит/секШирина : 1 920 пикселейВысота : 1 080 пикселейСоотношение сторон : 16:9Режим частоты кадров : ПостоянныйЧастота кадров : 25,000 кадров/секЦветовое пространство : YUVСубдискретизация насыщенности : 4:2:0Битовая глубина : 8 битТип развёртки : ПрогрессивнаяБит/(Пиксели*Кадры) : 0.162Размер потока : 5,62 Гбайт (93%)Язык : English (US)Default : ДаForced : НетЦветовой диапазон : LimitedОсновные цвета : BT.709Характеристики трансфера : BT.709Коэффициенты матрицы : BT.709
АудиоИдентификатор : 2Формат : E-AC-3Формат/Информация : Enhanced AC-3Коммерческое название : Dolby Digital PlusИдентификатор кодека : A_EAC3Продолжительность : 1 ч. 35 м.Вид битрейта : ПостоянныйБитрейт : 640 Кбит/секКаналы : 6 каналовChannel layout : L R C LFE Ls RsЧастота : 48,0 КГцЧастота кадров : 31,250 кадров/сек (1536 SPF)Метод сжатия : С потерямиРазмер потока : 438 Мбайт (7%)Заголовок : EnglishЯзык : EnglishService kind : Complete MainDefault : ДаForced : Нет
ТекстИдентификатор : 3Формат : UTF-8Идентификатор кодека : S_TEXT/UTF8Идентификатор кодека/Информация : UTF-8 Plain TextПродолжительность : 1 ч. 34 м.Битрейт : 222 бит/секЧастота кадров : 0,303 кадр/секCount of elements : 1721Размер потока : 154 Кбайт (0%)Заголовок : English (SDH)Язык : English (US)Default : НетForced : Нет

Скриншоты

[Profile]  [PM] 
Display posts:    
Reply to topic

Current time is: 20-Jul 03:29

All times are UTC + 2



You cannot post new topics in this forum
You cannot reply to topics in this forum
You cannot edit your posts in this forum
You cannot delete your posts in this forum
You cannot vote in polls in this forum
You cannot attach files in this forum
You cannot download files in this forum