Святые узы брака / Holy Matrimony (Леонард Нимой / Leonard Nimoy) [1994, США, комедия, BDRemux 1080i] MVO + AVO + Original Eng

Reply to topic
 
Author
Message

Faust ®

Gender: Unknown

Longevity: 12 years

Posts: 23187

Reputation: 0 [+] [-]

Faust · Post 07-Jun-2023 01:00

[Quote] 

Святые узы брака / Holy Matrimony
Год выпуска: 1994
Страна: США
Жанр: комедия
Продолжительность: 1:32:58
Перевод: Профессиональный (многоголосый, закадровый) Первый канал
Перевод: Авторский (одноголосый) Василий Горчаков
Русские субтитры: нет
Режиссер: Леонард Нимой / Leonard Nimoy
В ролях: Патриция Аркетт, Джозеф Гордон-Левитт, Армин Мюллер-Шталь, Тейт Донован, Джон Шак, Лоис Смит, Кортни Б. Вэнс, Джеффри Нордлинг, Ричард Риле, Мэри Пэт Глисон, Alaine Byrne, Dan Cossolini, Лори Алан, Джесс Швидди, Фрэнк Новак, Арт Вебер, Тед Хофф, Уэс Риес, Чак Бучер, Майрон А. Вилер, Бабба Смит, Keith Cron, Джон Хэйген, Грэйс Пул, Kristy Yetter, Jim Gretch, Чарли Вульф, Патти Суини, Дорин Дэниелс, Gail Holzeimer, Соня Эли, Shainah Novis, Sonja Drinkwalter, Мэрлин Шнайдер, Шерил Мотт, Ванесса Пикард, Эдвард Л. Кинг, Бетти Кинг, Алан Блюменфилд, Дасти Льюис, Rusty Pegar, Шеннон Эвертс, Джон Гольдес, Брэт Петерсон, Рэй Монни, Paul Tulley, Кэсси Бьюкэнэн, Билл Невинс, Penny Redeau, Don Mogensen, Грег Корин, Клинт МакКрэй
Описание: Эффектная блондинка Гавана ограбила вместе со своим приятелем Питером кассу парка развлечений. Пустившись в бега, они укрылись в религиозной колонии Гуттеритов, где вырос Питер. Шустрая и раскованная Гавана оказалась вынуждена следовать строгим архаичным законам и правилам Гуттеритов, не признающих телевизоры, косметику, сигареты и крепкие выражения. Более того, ей пришлось официально оформить брак с Питером и выполнять роль покорной и кроткой супруги. При этом она понятия не имеет, где Питер спрятал деньги. А когда он погибает в автокатастрофе, чтобы остаться в колонии и найти тайник с деньгами ей приходится, по местным законам, выйти замуж за младшего брата Питера. Все бы ничего, но новому супругу всего 12 лет!
Доп. информация: РЕЛИЗ ГРУППЫ
Качество: BDRemux
Формат: MKV
Видео: MPEG-4 AVC Video 29762 kbps 1080i / 29.970 fps / 16:9 / High Profile 4.1
Аудио: Dolby Digital Audio Russian 2.0 / 48 kHz / 192 kbps [ОРТ]
Аудио: Dolby Digital Audio Russian 2.0 / 48 kHz / 192 kbps [Горчаков]
Аудио: DTS-HD Master Audio English 2.0 / 48 kHz / 2065 kbps / 24-bit (DTS Core: 2.0 / 48 kHz / 1509 kbps / 24-bit)

MI

General
Unique ID : 224045246363641774002506434414222579044 (0xA88D8B7DB5CF32E69085CC49A14D1564)
Complete name : J:\Holy.Matrimony.1994.1080i.Bluray.AVC.Remux.mkv
Format : Matroska
Format version : Version 2
File size : 20.9 GiB
Duration : 1h 33mn
Overall bit rate : 32.2 Mbps
Movie name : Holy.Matrimony.1994.1080i.Bluray.AVC.Remux
Encoded date : UTC 2011-08-28 16:36:51
Writing application : mkvmerge v4.9.1 ('Ich will') сборка от Jul 11 2011 23:53:15
Writing library : libebml v1.2.1 + libmatroska v1.1.1
Video
ID : 1
Format : AVC
Format/Info : Advanced Video Codec
Format profile : High@L4.1
Format settings, CABAC : Yes
Format settings, ReFrames : 3 frames
Muxing mode : Container profile=Unknown@0.0
Codec ID : V_MPEG4/ISO/AVC
Duration : 1h 33mn
Bit rate mode : Variable
Bit rate : 29.1 Mbps
Maximum bit rate : 35.0 Mbps
Width : 1 920 pixels
Height : 1 080 pixels
Display aspect ratio : 16:9
Frame rate : 29.970 fps
Standard : NTSC
Color space : YUV
Chroma subsampling : 4:2:0
Bit depth : 8 bits
Scan type : Interlaced
Scan order : Top Field First
Bits/(Pixel*Frame) : 0.469
Stream size : 18.9 GiB (91%)
Title : uralmix
Color primaries : BT.709-5, BT.1361, IEC 61966-2-4, SMPTE RP177
Transfer characteristics : BT.709-5, BT.1361
Matrix coefficients : BT.709-5, BT.1361, IEC 61966-2-4 709, SMPTE RP177
Audio #1
ID : 2
Format : AC-3
Format/Info : Audio Coding 3
Mode extension : CM (complete main)
Codec ID : A_AC3
Duration : 1h 33mn
Bit rate mode : Constant
Bit rate : 192 Kbps
Channel(s) : 2 channels
Channel positions : Front: L R
Sampling rate : 48.0 KHz
Bit depth : 16 bits
Compression mode : Lossy
Stream size : 128 MiB (1%)
Title : Первый канал
Language : Russian
Audio #2
ID : 3
Format : AC-3
Format/Info : Audio Coding 3
Mode extension : CM (complete main)
Codec ID : A_AC3
Duration : 1h 33mn
Bit rate mode : Constant
Bit rate : 192 Kbps
Channel(s) : 2 channels
Channel positions : Front: L R
Sampling rate : 48.0 KHz
Bit depth : 16 bits
Compression mode : Lossy
Stream size : 128 MiB (1%)
Title : авторский - Василий Горчаков
Language : Russian
Audio #3
ID : 4
Format : DTS
Format/Info : Digital Theater Systems
Format profile : MA / Core
Codec ID : A_DTS
Duration : 1h 33mn
Bit rate mode : Variable
Bit rate : 2 014 Kbps / 1 510 Kbps
Channel(s) : 2 channels
Channel positions : Front: L R
Sampling rate : 48.0 KHz
Bit depth : 24 bits
Compression mode : Lossless / Lossy
Language : English
Menu
00:00:00.000 : en:00:00:00.000
00:08:08.521 : en:00:08:08.521
00:16:42.001 : en:00:16:42.001
00:21:36.562 : en:00:21:36.562
00:25:51.583 : en:00:25:51.583
00:31:44.302 : en:00:31:44.302
00:37:43.661 : en:00:37:43.661
00:44:07.979 : en:00:44:07.979
00:51:20.077 : en:00:51:20.077
00:56:19.376 : en:00:56:19.376
01:04:49.252 : en:01:04:49.252
01:09:23.860 : en:01:09:23.860
01:14:39.442 : en:01:14:39.442
01:24:42.644 : en:01:24:42.644
01:26:59.881 : en:01:26:59.881

Скриншоты

[Profile]  [PM] 
Display posts:    
Reply to topic

Current time is: 20-Jul 03:28

All times are UTC + 2



You cannot post new topics in this forum
You cannot reply to topics in this forum
You cannot edit your posts in this forum
You cannot delete your posts in this forum
You cannot vote in polls in this forum
You cannot attach files in this forum
You cannot download files in this forum