Покидая Лас-Вегас / Leaving Las Vegas (Майк Фиггис / Mike Figgis) [1995, США, Франция, Великобритания, драма, BDRip-AVC] DVO + MVO + 2x AVO + Sub Rus, Eng + Original Eng

Reply to topic
 
Author
Message

Satyr ®

Gender: Unknown

Longevity: 15 years

Posts: 22031

Reputation: 56 [+] [-]

Satyr · Post 07-Jun-2023 05:05

[Quote] 

Покидая Лас-Вегас / Leaving Las Vegas-
Страна: США, Франция, Великобритания
Жанр: драма
Год выпуска: 1995
Продолжительность: 01:52:02
Перевод: Профессиональный (двухголосый закадровый) Twister
Перевод 2: Профессиональный (многоголосый закадровый) Мост Видео | Отдельно
Перевод 3: Авторский (одноголосый закадровый) Живов
Перевод 4: Авторский (одноголосый закадровый) Карцев | Отдельно
Субтитры: Rus (Full), Eng (Full)
Оригинальная аудиодорожка: Eng
Режиссер: Майк Фиггис / Mike Figgis
В ролях:
Николас Кейдж | Nicolas Cage
Элизабет Шу | Elisabeth Shue

Джулиан Сэндс, Ричард Льюис, Стивен Уэбер, Валерия Голино, Эмили Проктер, Стюарт Реген, Ким Эдамс, Грэм Беккел-Описание:Если вся жизнь кажется кошмаром. Если затяжной запой окончательно разрушил карьеру в серьёзной фирме. Может быть, есть смысл уничтожить всё, что связывало тебя с прошлой жизнью и начать новую? В блестящем и грешном Лас-Вегасе. Где среди блеска ночной жизни одинокая «ночная бабочка» может оказаться внимательнее и сердечнее любого психоаналитика. Потому что она захочет спасти несчастного пропойцу от него самого.
Сможет ли эта странная любовь помочь обоим? Или — погубить обоих?
-Доп. информация:
Дорожки взяты с этой раздачи-

Оскар, 1996 год
Победитель (1):
Лучшая мужская роль ( Николас Кейдж )
Золотой глобус, 1996 год
Победитель (1):
Лучшая мужская роль (драма) ( Николас Кейдж )
-
IMDB 7.5
Sample-Тип релиза: BDRip-AVC | Blu-ray 1080p
Контейнер: MKV
Видео: AVC 4259 kb/s 1008 x 546 (1.846) 23.976 fps
Аудио: AC3 5.1, 48 kHz 384 kbps | DVO Twister
Аудио 2: AC3 2.0, 48 kHz 192 kbps | MVO Мост Видео Отдельно
Аудио 3: AC3 5.1, 48 kHz 448 kbps | AVO Юрий Живов
Аудио 4: AC3 2.0, 48 kHz 192 kbps | AVO Пётр Карцев Отдельно
Аудио 5: AC3 5.1, 48 kHz 448 kbps | ENG
Формат субтитров: softsub (SRT)

MediaInfo | Log

Log

x264 [info]: profile High, level 4.1, 4:2:0, 8-bit
x264 [info]: frame I:908 Avg QP:16.76 size: 73551
x264 [info]: frame P:29742 Avg QP:18.48 size: 36610
x264 [info]: frame B:130532 Avg QP:20.63 size: 18564
x264 [info]: consecutive B-frames: 1.2% 1.4% 4.1% 9.4% 12.1% 50.7% 8.0% 1.8% 3.4% 3.1% 4.6%
x264 [info]: mb I I16..4: 9.1% 81.0% 10.0%
x264 [info]: mb P I16..4: 0.2% 19.0% 1.2% P16..4: 26.0% 33.6% 13.2% 1.1% 0.0% skip: 5.7%
x264 [info]: mb B I16..4: 0.0% 2.9% 0.1% B16..8: 41.7% 23.5% 5.2% direct: 8.1% skip:18.4% L0:49.9% L1:42.3% BI: 7.8%
x264 [info]: 8x8 transform intra:92.6% inter:61.8%
x264 [info]: direct mvs spatial:99.7% temporal:0.3%
x264 [info]: coded y,uvDC,uvAC intra: 95.2% 75.5% 41.1% inter: 48.9% 28.5% 1.5%
x264 [info]: i16 v,h,dc,p: 37% 9% 21% 33%
x264 [info]: i8 v,h,dc,ddl,ddr,vr,hd,vl,hu: 10% 6% 12% 10% 14% 13% 12% 11% 11%
x264 [info]: i4 v,h,dc,ddl,ddr,vr,hd,vl,hu: 37% 4% 6% 7% 11% 11% 9% 8% 7%
x264 [info]: i8c dc,h,v,p: 35% 29% 20% 15%
x264 [info]: Weighted P-Frames: Y:8.1% UV:4.2%
x264 [info]: ref P L0: 37.2% 8.9% 18.4% 8.3% 7.1% 5.2% 4.8% 2.7% 2.7% 2.2% 2.3% 0.2% 0.0%
x264 [info]: ref B L0: 58.7% 14.6% 9.0% 4.9% 3.8% 3.2% 2.7% 1.7% 1.0% 0.4%
x264 [info]: ref B L1: 90.8% 9.2%
x264 [info]: kb/s:4258.89
x264 [total]: encoded 161182 frames, 22.78 fps, 4258.89 kb/s
Format : Matroska
Format version : Version 4
File size : 4.34 GiB
Duration : 1 h 52 min
Overall bit rate : 5 541 kb/s
Movie name : Leaving Las Vegas (1995) [torrentsland.com.ua]
Encoded date : UTC 2023-06-06 23:05:22
Writing application : mkvmerge v34.0.0 ('Sight and Seen') 64-bit
Writing library : libebml v1.3.7 + libmatroska v1.5.0
Video
ID : 1
Format : AVC
Format/Info : Advanced Video Codec
Format profile : High@L4.1
Format settings : CABAC / 11 Ref Frames
Format settings, CABAC : Yes
Format settings, Reference frames : 11 frames
Codec ID : V_MPEG4/ISO/AVC
Duration : 1 h 52 min
Bit rate : 4 259 kb/s
Width : 1 008 pixels
Height : 546 pixels
Display aspect ratio : 1.85:1
Frame rate mode : Constant
Frame rate : 23.976 (24000/1001) FPS
Color space : YUV
Chroma subsampling : 4:2:0
Bit depth : 8 bits
Scan type : Progressive
Bits/(Pixel*Frame) : 0.323
Stream size : 3.33 GiB (77%)
Title : Leaving Las Vegas (1995) [torrentsland.com.ua]
Writing library : x264 core 164 r3107 a8b68eb
Encoding settings : cabac=1 / ref=11 / deblock=1:-3:-2 / analyse=0x3:0x133 / me=umh / subme=11 / psy=1 / psy_rd=1.00:0.05 / mixed_ref=1 / me_range=32 / chroma_me=1 / trellis=2 / 8x8dct=1 / cqm=0 / deadzone=21,11 / fast_pskip=0 / chroma_qp_offset=-3 / threads=17 / lookahead_threads=4 / sliced_threads=0 / nr=0 / decimate=1 / interlaced=0 / bluray_compat=0 / constrained_intra=0 / bframes=10 / b_pyramid=2 / b_adapt=2 / b_bias=0 / direct=3 / weightb=1 / open_gop=0 / weightp=2 / keyint=250 / keyint_min=23 / scenecut=40 / intra_refresh=0 / rc_lookahead=60 / rc=crf / mbtree=0 / crf=18.9 / qcomp=0.60 / qpmin=0 / qpmax=69 / qpstep=4 / vbv_maxrate=50000 / vbv_bufsize=62500 / crf_max=0.0 / nal_hrd=none / filler=0 / ip_ratio=1.40 / pb_ratio=1.30 / aq=3:0.90
Language : English
Default : Yes
Forced : No
Audio #1
ID : 2
Format : AC-3
Format/Info : Audio Coding 3
Commercial name : Dolby Digital
Codec ID : A_AC3
Duration : 1 h 52 min
Bit rate mode : Constant
Bit rate : 384 kb/s
Channel(s) : 6 channels
Channel layout : L R C LFE Ls Rs
Sampling rate : 48.0 kHz
Frame rate : 31.250 FPS (1536 SPF)
Compression mode : Lossy
Stream size : 308 MiB (7%)
Title : DVO Twister
Language : Russian
Service kind : Complete Main
Default : Yes
Forced : No
Audio #2
ID : 3
Format : AC-3
Format/Info : Audio Coding 3
Commercial name : Dolby Digital
Codec ID : A_AC3
Duration : 1 h 52 min
Bit rate mode : Constant
Bit rate : 448 kb/s
Channel(s) : 6 channels
Channel layout : L R C LFE Ls Rs
Sampling rate : 48.0 kHz
Frame rate : 31.250 FPS (1536 SPF)
Compression mode : Lossy
Stream size : 359 MiB (8%)
Title : AVO Zhivov
Language : Russian
Service kind : Complete Main
Default : No
Forced : No
Audio #3
ID : 4
Format : AC-3
Format/Info : Audio Coding 3
Commercial name : Dolby Digital
Codec ID : A_AC3
Duration : 1 h 52 min
Bit rate mode : Constant
Bit rate : 448 kb/s
Channel(s) : 6 channels
Channel layout : L R C LFE Ls Rs
Sampling rate : 48.0 kHz
Frame rate : 31.250 FPS (1536 SPF)
Compression mode : Lossy
Stream size : 359 MiB (8%)
Title : Original
Language : English
Service kind : Complete Main
Default : No
Forced : No
Text #1
ID : 5
Format : UTF-8
Codec ID : S_TEXT/UTF8
Codec ID/Info : UTF-8 Plain Text
Duration : 1 h 47 min
Bit rate : 54 b/s
Frame rate : 0.139 FPS
Count of elements : 899
Stream size : 43.0 KiB (0%)
Title : Full
Language : Russian
Default : No
Forced : No
Text #2
ID : 6
Format : UTF-8
Codec ID : S_TEXT/UTF8
Codec ID/Info : UTF-8 Plain Text
Duration : 1 h 46 min
Bit rate : 37 b/s
Frame rate : 0.137 FPS
Count of elements : 870
Stream size : 28.8 KiB (0%)
Title : Full
Language : English
Default : No
Forced : No
Menu
00:00:00.000 : en:Chapter 01
00:01:19.828 : en:Chapter 02
00:03:48.269 : en:Chapter 03
00:06:22.215 : en:Chapter 04
00:09:36.409 : en:Chapter 05
00:13:20.840 : en:Chapter 06
00:15:45.027 : en:Chapter 07
00:16:10.386 : en:Chapter 08
00:20:57.381 : en:Chapter 09
00:23:21.983 : en:Chapter 10
00:24:14.869 : en:Chapter 11
00:26:46.771 : en:Chapter 12
00:28:56.443 : en:Chapter 13
00:35:49.814 : en:Chapter 14
00:38:58.585 : en:Chapter 15
00:40:38.518 : en:Chapter 16
00:43:16.677 : en:Chapter 17
00:46:11.185 : en:Chapter 18
00:50:32.904 : en:Chapter 19
00:55:52.599 : en:Chapter 20
00:57:17.809 : en:Chapter 21
01:01:42.240 : en:Chapter 22
01:04:10.763 : en:Chapter 23
01:08:32.817 : en:Chapter 24
01:12:45.903 : en:Chapter 25
01:15:51.213 : en:Chapter 26
01:17:10.667 : en:Chapter 27
01:23:53.611 : en:Chapter 28
01:31:43.122 : en:Chapter 29
01:36:32.536 : en:Chapter 30
01:41:10.647 : en:Chapter 31
01:48:18.033 : en:Chapter 32

Скриншоты




[Profile]  [PM] 
Display posts:    
Reply to topic

Current time is: 20-Jul 01:36

All times are UTC + 2



You cannot post new topics in this forum
You cannot reply to topics in this forum
You cannot edit your posts in this forum
You cannot delete your posts in this forum
You cannot vote in polls in this forum
You cannot attach files in this forum
You cannot download files in this forum