Опасный жених / Nur aus Liebe (Деннис Сатин / Dennis Satin) [1996, Германия, криминал, боевик, мелодрама, VHSRip] MVO (Варус видно)

Reply to topic
 
Author
Message

Satyr ®

Gender: Unknown

Longevity: 15 years

Posts: 22031

Reputation: 56 [+] [-]

Satyr · Post 07-Jun-2023 05:05

[Quote] 

Опасный жених / Nur aus Liebe
Страна: Германия
Жанр: Криминал, боевик, мелодрама
Год выпуска: 1996
Продолжительность: 01:40:06
Перевод: Профессиональный (многоголосый закадровый) Варус видно
Субтитры: нет
Режиссер: Деннис Сатин / Dennis Satin
В ролях: Катя Риман
Ханнес Енике
Хайнц Хёниг
Даниэла Амавия
Гвидо Фёрвайсер
Вернер Даен
Кристоф М.Орт
Инго Науйокс
Вальтер Шписке
Описание: Похищенные недалеко от Москвы радиоактивные элементы неожиданно оказываются на немецкой земле. Случайный спаситель девушки-таксиста, оказавшийся русским мафиози, решил обвести своих вокруг пальца.
Героиня Кати Риманн отваживается на борьбу с мафией и помогает любимому. В награду им достается жизнь и деньги.
Доп. информация: Оцифровка VHS от d_rocker
Релиз
Сэмпл: https://www.sendspace.com/file/h1kts1
Качество видео: VHSRip
Формат видео: MPG
Видео: MPEG2 Video 720x576 (4:3) 25fps 4380kbps
Аудио: Dolby AC3 48000Hz 2 ch 256kbps

MediaInfo

Опасный жених - Nur aus Liebe [by d_rocker].mpgFormat                      : MPEG-PSFile size                   : 3.32 GiBDuration                    : 1 h 40 minOverall bit rate mode       : ConstantOverall bit rate            : 4 742 kb/sFrame rate                  : 25.000 FPS
VideoID : 224 (0xE0)Format : MPEG VideoFormat version : Version 2Format profile : Main@MainFormat settings : CustomMatrix / BVOPFormat settings, BVOP : YesFormat settings, Matrix : CustomFormat settings, GOP : M=3, N=12Format settings, picture st : FrameDuration : 1 h 40 minBit rate mode : ConstantBit rate : 4 380 kb/sWidth : 720 pixelsHeight : 576 pixelsDisplay aspect ratio : 4:3Frame rate : 25.000 FPSStandard : PALColor space : YUVChroma subsampling : 4:2:0Bit depth : 8 bitsScan type : InterlacedScan order : Top Field FirstCompression mode : LossyBits/(Pixel*Frame) : 0.422Time code of first frame : 00:00:00:00Time code source : Group of pictures headerGOP, Open/Closed : OpenGOP, Open/Closed of first f : ClosedStream size : 3.07 GiB (93%)
AudioID : 189 (0xBD)-128 (0x80)Format : AC-3Format/Info : Audio Coding 3Commercial name : Dolby DigitalMuxing mode : DVD-VideoDuration : 1 h 40 minBit rate mode : ConstantBit rate : 256 kb/sChannel(s) : 2 channelsChannel layout : L RSampling rate : 48.0 kHzFrame rate : 31.250 FPS (1536 SPF)Compression mode : LossyStream size : 183 MiB (5%)Service kind : Complete Main
[Profile]  [PM] 
Display posts:    
Reply to topic

Current time is: 20-Jul 01:34

All times are UTC + 2



You cannot post new topics in this forum
You cannot reply to topics in this forum
You cannot edit your posts in this forum
You cannot delete your posts in this forum
You cannot vote in polls in this forum
You cannot attach files in this forum
You cannot download files in this forum