Рождение легенд / Spinning Gold (Тимоти Скотт Богарт / Timothy Scott Bogart) [2023, США, мюзикл, драма, биография, музыка, BDRemux 1080p] 2х MVO (TVShows, Jaskier) + Sub (Eng, Spa) + Original Eng

Reply to topic
 
Author
Message

Faust ®

Gender: Unknown

Longevity: 12 years

Posts: 23187

Reputation: 0 [+] [-]

Faust · Post 07-Jun-2023 13:20

[Quote] 

Рождение легенд
Spinning Gold

Страна: США
Жанр: Мюзикл, драма, биография, музыка
Год выпуска: 2023
Продолжительность: 02:17:39
Перевод 1: Профессиональный (многоголосый закадровый) TVShows
Перевод 2: Профессиональный (многоголосый закадровый) Jaskier ненормативная лексика
Субтитры: Английские .srt, испанские .pgs
Оригинальная аудиодорожка: Английский
Режиссер: Тимоти Скотт Богарт / Timothy Scott Bogart
В ролях: Джереми Джордан, Уиз Халифа, Мишель Монахэн, Джейсон Айзекс, Джейсон Дэруло, Джей Фэро, Линдси Фонсека, Дэн Фоглер, Пейтон Лист, Джеймс Волк
Описание: Что делать, если ты начинающий продюсер, и все, что у тебя есть — большие долги и несколько неизвестных музыкантов? Открыть свой лейбл! Бросить вызов условностям, рискнуть всем и перевернуть мир шоу-бизнеса с ног на голову. История рождения легендарной звукозаписывающей компании, которая навсегда изменила мир музыки.
Спасибо kro44i за дорожки

Тип релиза: BDRemux 1080p
Контейнер: MKV
Видео: MPEG-4 AVC, 1080p, 1920:1080 (16:9), 28205 kbps, 23.976 fps
Аудио 1: АС3, 6 ch, 48 kHz, 448 kbps Русский MVO TVShows
Аудио 2: АС3, 6 ch, 48 kHz, 448 kbps Русский MVO Jaskier ненормативная лексика
Аудио 3: DTS-HD MA, 6 ch, 48 kHz, 3620 kbps, 24-bit (DTS Core 6 ch, 48 kHz, 1509 kbps, 24-bit) Английский
Аудио 4: АС3, 2 ch, 48 kHz, 192 kbps Английский Commentary with Writer/Director Timothy Scott Bogart & Director of Photography Byron Werner
Формат субтитров: SRT, PGS

MediaInfo

GeneralUnique ID                                : 27059083693726808289928988832300468134 (0x145B63D41D04957FCD765B79C47707A6)Complete name                            : G:\Spinning.Gold.2023.REMUX.mkvFormat                                   : MatroskaFormat version                           : Version 4File size                                : 31.5 GiBDuration                                 : 2 h 17 minOverall bit rate mode                    : VariableOverall bit rate                         : 32.8 Mb/sEncoded date                             : UTC 2023-06-06 14:56:33Writing application                      : mkvmerge v20.0.0 ('I Am The Sun') 64-bitWriting library                          : libebml v1.3.5 + libmatroska v1.4.8
VideoID : 1Format : AVCFormat/Info : Advanced Video CodecFormat profile : High@L4.1Format settings : CABAC / 4 Ref FramesFormat settings, CABAC : YesFormat settings, Reference frames : 4 framesCodec ID : V_MPEG4/ISO/AVCDuration : 2 h 17 minBit rate mode : VariableBit rate : 28.1 Mb/sMaximum bit rate : 38.0 Mb/sWidth : 1 920 pixelsHeight : 1 080 pixelsDisplay aspect ratio : 16:9Frame rate mode : ConstantFrame rate : 23.976 (24000/1001) FPSColor space : YUVChroma subsampling : 4:2:0Bit depth : 8 bitsScan type : ProgressiveBits/(Pixel*Frame) : 0.564Stream size : 27.0 GiB (86%)Language : EnglishDefault : YesForced : No
Audio #1ID : 2Format : AC-3Format/Info : Audio Coding 3Commercial name : Dolby DigitalCodec ID : A_AC3Duration : 2 h 17 minBit rate mode : ConstantBit rate : 448 kb/sChannel(s) : 6 channelsChannel layout : L R C LFE Ls RsSampling rate : 48.0 kHzFrame rate : 31.250 FPS (1536 SPF)Compression mode : LossyStream size : 441 MiB (1%)Title : MVO TVShowsLanguage : RussianService kind : Complete MainDefault : YesForced : No
Audio #2ID : 3Format : AC-3Format/Info : Audio Coding 3Commercial name : Dolby DigitalCodec ID : A_AC3Duration : 2 h 17 minBit rate mode : ConstantBit rate : 448 kb/sChannel(s) : 6 channelsChannel layout : L R C LFE Ls RsSampling rate : 48.0 kHzFrame rate : 31.250 FPS (1536 SPF)Compression mode : LossyStream size : 441 MiB (1%)Title : MVO Jaskier ненормативная лексикаLanguage : RussianService kind : Complete MainDefault : NoForced : No
Audio #3ID : 4Format : DTS XLLFormat/Info : Digital Theater SystemsCommercial name : DTS-HD Master AudioCodec ID : A_DTSDuration : 2 h 17 minBit rate mode : VariableBit rate : 3 620 kb/sChannel(s) : 6 channelsChannel layout : C L R Ls Rs LFESampling rate : 48.0 kHzFrame rate : 93.750 FPS (512 SPF)Bit depth : 24 bitsCompression mode : LosslessStream size : 3.48 GiB (11%)Language : EnglishDefault : NoForced : No
Audio #4ID : 5Format : AC-3Format/Info : Audio Coding 3Commercial name : Dolby DigitalCodec ID : A_AC3Duration : 2 h 17 minBit rate mode : ConstantBit rate : 192 kb/sChannel(s) : 2 channelsChannel layout : L RSampling rate : 48.0 kHzFrame rate : 31.250 FPS (1536 SPF)Compression mode : LossyStream size : 189 MiB (0%)Title : Commentary with Writer/Director Timothy Scott Bogart and Director of Photography Byron WernerLanguage : EnglishService kind : Complete MainDefault : NoForced : No
Text #1ID : 6Format : UTF-8Codec ID : S_TEXT/UTF8Codec ID/Info : UTF-8 Plain TextDuration : 2 h 16 minBit rate : 92 b/sCount of elements : 2703Stream size : 92.0 KiB (0%)Language : EnglishDefault : NoForced : No
Text #2ID : 7Format : PGSMuxing mode : zlibCodec ID : S_HDMV/PGSCodec ID/Info : Picture based subtitle format used on BDs/HD-DVDsDuration : 2 h 16 minBit rate : 42.6 kb/sCount of elements : 3838Stream size : 41.6 MiB (0%)Title : Latin AmericanLanguage : SpanishDefault : NoForced : No
Menu00:00:00.000 : en:Chapter 0100:07:10.430 : en:Chapter 0200:15:19.043 : en:Chapter 0300:21:54.563 : en:Chapter 0400:27:44.537 : en:Chapter 0500:33:27.005 : en:Chapter 0600:39:05.384 : en:Chapter 0700:46:26.742 : en:Chapter 0800:52:53.460 : en:Chapter 0900:58:44.019 : en:Chapter 1001:07:44.434 : en:Chapter 1101:16:25.663 : en:Chapter 1201:25:33.837 : en:Chapter 1301:29:28.488 : en:Chapter 1401:38:40.372 : en:Chapter 1501:45:49.634 : en:Chapter 1601:54:16.640 : en:Chapter 1702:02:02.105 : en:Chapter 1802:07:49.161 : en:Chapter 1902:12:30.442 : en:Chapter 20
[Profile]  [PM] 
Display posts:    
Reply to topic

Current time is: 20-Jul 01:26

All times are UTC + 2



You cannot post new topics in this forum
You cannot reply to topics in this forum
You cannot edit your posts in this forum
You cannot delete your posts in this forum
You cannot vote in polls in this forum
You cannot attach files in this forum
You cannot download files in this forum