Козырной туз / Четыре туза / I Quattro dell\'Ave Maria / Ace high (Джузеппе Колицци / Giuseppe Colizzi) [1968, Италия, вестерн, BDRemux 1080p] [US transfer] AVO Владимир Королев + Sub Eng + Original Eng

Reply to topic
 
Author
Message

Faust ®

Gender: Unknown

Longevity: 12 years

Posts: 23202

Reputation: 0 [+] [-]

Faust · Post 07-Jun-2023 21:30

[Quote] 

Козырной туз / Четыре туза / I Quattro dell'Ave Maria / Ace high
Страна: Италия
Студия: San Marco, Cronocinematografica S.p.a.
Жанр: вестерн
Год выпуска: 1968 (премьера 31.10.1968)
Продолжительность: 2:02:24
Перевод: Авторский (одноголосый закадровый) Владимир Королев
Субтитры: английские
Оригинальная аудиодорожка: английский
Режиссер: Джузеппе Колицци / Giuseppe Colizzi
В ролях: Теренс Хилл, Бад Спенсер , Илай Уоллек, Брок Питерс, Кевин МакКарти, Федерико Бойдо, Армандо Бандини, Штеффен Захариас
Описание: После того, как Какопоулос ухитрился спастись от виселицы по ложному обвинению, он грабит на крупную сумму Кэта Стивенса и Хатча Бэсси. К тому же крадет их лошадей. В результате развеселого и бесшабашного преследования Стивенс и Бэсси становятся невольными союзниками Какопоулоса в разборках с бандой, подставившей его.
Второй совместный фильм Теренса Хилла и Бада Спенсера.

Фильмы с совместным участием Теренса Хилла и Бада Спенсера

0. Ганнибал / Annibale (1959)
Снимались еще под своими настоящими именами в небольших эпизодах.
1. Бог простит. Я - нет! / Dio perdona... Io no! / God Forgives... I don't! (1967)
2. Козырной туз / I Quattro dell'Ave Maria / Ace high (1968)
3. Золотые копи / La Collina degli stivali / Boot Hill (1969)
4. Меня зовут Троица / Lo chiamavano Trinita... / They Call Me Trinity (1970)
5. Меня всё ещё зовут Троица / ...continuavano a chiamarlo Trinita / Trinity is still my Name (1971)
6. Черный корсар / Il Corsaro nero Blackie the Pirate (1971)
7. Ну вы, ребята, даете! / Piu forte, ragazzi! / All the Way Boys (1972)
8. Иначе мы рассердимся / Altrimenti ci arrabbiamo / Watch out, We're Mad (1974)
9. Два миссионера / Porgi l'altra guancia / Turn the other Cheek (1974)
10. Блюстители порядка / I due superpiedi quasi piatti / Crime Busters (1977)
11. Орел или решка / Pari e dispari / Odds and Evens (1978)
12. В болоте с гиппопотамами / Io sto con gli ippopotami / I'm for the Hippopotamus (1979)
13. Найдёшь друга - найдёшь сокровище / Chi trova un amico trova un tesoro / Who Finds a Friend Finds a Treasure (1981)
14. Всегда готовы / Nati con la camicia / Go for it (1983)
15. Сплошные неприятности / Non c'e due senza quattro / Double Trouble (1984)
16. Суперполицейские Майами / Poliziotti dell'ottava strada / Miami supercops (1985)
17. Любители неприятностей / Botte di Natale / The Night Before Christmas (1994)
Доп. информация: Ремукс американского блюрея найден в сети. Ace High 1968 1080p Blu-ray Remux AVC FLAC 2.0-EPSiLON
Русский перевод взят с DVD.
Сэмпл: http://sendfile.su/1669692
Тип релиза: BDRemux 1080p
Контейнер: MKV
Видео: AVC / 1920x1080 / 16:9 / 23.976 fps / 39153 kbps / High@L4.1
Аудио: Russian AC3 2.0 / 192 kbps / 48 kHz / AVO Владимир Королев
Аудио 2: English DTS-HD Master Audio 2.0 / 48.0 kHz / 768 kbps / 24 bit (DTS Core: 2.0 / 48 kHz / 255 kbps / 24 bit)
Формат субтитров: softsub (SRT)

MediaInfo

GeneralUnique ID                      : 144183359318549485710737056814715382979 (0x6C78B47598EF0DF3D0C3714DCDDC2CC3)Complete name                  : Y:\Теренс Хилл и Бад Спенсер\Теренс Хилл и Бад Спенсер\02 Козырной туз - I Quattro dell'Ave Maria (1968) BDRemux.mkvFormat                         : MatroskaFormat version                 : Version 4 / Version 2File size                      : 34.3 GiBDuration                       : 2h 2mnOverall bit rate mode          : VariableOverall bit rate               : 40.1 MbpsEncoded date                   : UTC 2023-06-07 04:33:57Writing application            : mkvmerge v28.2.0 ('The Awakening') 64-bitWriting library                : libebml v1.3.6 + libmatroska v1.4.9Cover                          : YesAttachments                    : cover.jpg
VideoID : 1Format : AVCFormat/Info : Advanced Video CodecFormat profile : High@L4.1Format settings, CABAC : YesFormat settings, ReFrames : 4 framesCodec ID : V_MPEG4/ISO/AVCDuration : 2h 2mnBit rate mode : VariableBit rate : 39.2 MbpsMaximum bit rate : 40.0 MbpsWidth : 1 920 pixelsHeight : 1 080 pixelsDisplay aspect ratio : 16:9Frame rate mode : ConstantFrame rate : 23.976 (24000/1001) fpsColor space : YUVChroma subsampling : 4:2:0Bit depth : 8 bitsScan type : ProgressiveBits/(Pixel*Frame) : 0.788Stream size : 33.5 GiB (98%)Title : Козырной туз - I Quattro dell'Ave Maria (1968); H264, 1920x1080p, 23.976 fps, 39153 kbpsLanguage : ItalianDefault : YesForced : No
Audio #1ID : 2Format : AC-3Format/Info : Audio Coding 3Mode extension : CM (complete main)Format settings, Endianness : BigCodec ID : A_AC3Duration : 2h 2mnBit rate mode : ConstantBit rate : 192 KbpsChannel(s) : 2 channelsChannel positions : Front: L RSampling rate : 48.0 KHzFrame rate : 31.250 fps (1536 spf)Compression mode : LossyStream size : 168 MiB (0%)Title : AVO ??? Владимир Королев, AC3 2.0, 192 kbpsLanguage : RussianDefault : YesForced : No
Audio #2ID : 3Format : DTSFormat/Info : Digital Theater SystemsFormat profile : MA / CoreMode : 16Format settings, Endianness : BigCodec ID : A_DTSDuration : 2h 2mnBit rate mode : Variable / ConstantBit rate : 768 Kbps / 255 KbpsChannel(s) : 2 channelsChannel positions : Front: L RSampling rate : 48.0 KHzFrame rate : 93.750 fps (512 spf)Bit depth : 24 bitsCompression mode : Lossless / LossyStream size : 660 MiB (2%)Title : DTS-HD MA 2.0, 24 bit, 768/255 kbpsLanguage : EnglishDefault : NoForced : No
Text #1ID : 4Format : UTF-8Codec ID : S_TEXT/UTF8Codec ID/Info : UTF-8 Plain TextDuration : 1h 57mnBit rate : 39 bpsCount of elements : 1059Stream size : 34.3 KiB (0%)Language : EnglishDefault : NoForced : No
Text #2ID : 5Format : UTF-8Codec ID : S_TEXT/UTF8Codec ID/Info : UTF-8 Plain TextDuration : 2h 1mnBit rate : 41 bpsCount of elements : 1290Stream size : 37.1 KiB (0%)Title : SDHLanguage : EnglishDefault : NoForced : No
Text #3ID : 6Format : PGSMuxing mode : zlibCodec ID : S_HDMV/PGSCodec ID/Info : Picture based subtitle format used on BDs/HD-DVDsDuration : 1h 57mnBit rate : 24.3 KbpsCount of elements : 2118Stream size : 20.5 MiB (0%)Language : EnglishDefault : NoForced : No
Menu00:00:00.000 : en:Chapter 100:09:38.287 : en:Chapter 200:25:44.586 : en:Chapter 300:47:13.749 : en:Chapter 401:06:20.769 : en:Chapter 501:25:35.548 : en:Chapter 601:36:05.052 : en:Chapter 701:49:02.287 : en:Chapter 8

Скриншоты

[Profile]  [PM] 
Display posts:    
Reply to topic

Current time is: 21-Jul 21:09

All times are UTC + 2



You cannot post new topics in this forum
You cannot reply to topics in this forum
You cannot edit your posts in this forum
You cannot delete your posts in this forum
You cannot vote in polls in this forum
You cannot attach files in this forum
You cannot download files in this forum