Планета акул / Planet of the Shark (Марк Аткинс / Mark Atkins) [2016, США, ужасы, фантастика, боевик, триллер, HDRip] MVO (Good Time Media) + Original Eng

Reply to topic
 
Author
Message

Satyr ®

Gender: Unknown

Longevity: 15 years

Posts: 22031

Reputation: 56 [+] [-]

Satyr · Post 08-Jun-2023 05:40

[Quote] 

Планета акул / Planet of the Shark
Страна: США
Жанр: ужасы, фантастика, боевик, триллер
Год выпуска: 2016
Продолжительность: 01:29:18
Перевод: Профессиональный (многоголосый закадровый) Good Time Media
Оригинальная аудиодорожка: английский
Субтитры: нет
Режиссер: Марк Аткинс / Mark Atkins
В ролях: Брэндон Оре, Стефани Беран, Линдсэй Салливан, Lauren Joseph, Daniel Barnett, Кристина Виссер, John B Swart, Алекс Эн-лос, Энджи Дик, Ryan-Wayde Hannival
Описание: Действие разворачивается в ближайшем будущем, когда таяние ледников охватывает 98% территории Земли. Акулы процветают и доминируют на планете, и все их несметные стаи эксплуатируются мутировавшей альфа-акулой.
Доп. информация: Перевод от Good Time Media записан с телеканала Trash
За запись с телеканала спасибо kyba62
За синхронизацию дорожек с переводом Good Time Media а также изготовление рипа спасибо Pеrfесt_03.
Сэмпл: http://sendfile.su/1669710
Качество видео: HDRip
Формат видео: AVI
Видео: XviD, 704x400 (16/9), 23.976 fps,1761 Kbps (0.255 bit/pixel)
Аудио 1: AC3 , 48 kHz , 192.00 kbps avg , 2/0 (L,R) MVO (Good Time Media)
Аудио 2: AC3 , 48 kHz , 224.00 kbps avg , 2/0 (L,R) [eng]

MediaInfo

H:\Фильмы\Planet of the Sharks (2016).avi   General      Complete name : H:\Фильмы\Planet of the Sharks (2016).avi      Format : AVI      Format/Info : Audio Video Interleave      File size : 1.37 GiB      Duration : 1 h 29 min      Overall bit rate : 2 191 kb/s      Writing application : VirtualDubMod 1.5.10.3 | www.virtualdub-fr.org || (build 2550/release)      Writing library : VirtualDubMod build 2550/release   Video #0      ID : 0      Format : MPEG-4 Visual      Format profile : Advanced Simple@L5      Format settings : BVOP2 / Custom Matrix      Format settings, BVOP : 2      Format settings, QPel : No      Format settings, GMC : No warppoints      Format settings, Matrix : Custom      Codec ID : XVID      Codec ID/Hint : XviD      Duration : 1 h 29 min      Bit rate : 1 761 kb/s      Width : 720 pixels      Height : 400 pixels      Display aspect ratio : 16:9      Frame rate : 23.976 (24000/1001) FPS      Color space : YUV      Chroma subsampling : 4:2:0      Bit depth : 8 bits      Scan type : Progressive      Compression mode : Lossy      Bits/(Pixel*Frame) : 0.255      Stream size : 1.10 GiB (80%)      Writing library : XviD 1.2.1 (UTC 2008-12-04)   Audio #1      ID : 1      Format : AC-3      Format/Info : Audio Coding 3      Codec ID : 2000      Duration : 1 h 29 min      Bit rate mode : Constant      Bit rate : 192 kb/s      Channel(s) : 2 channels      Channel positions : Front: L R      Sampling rate : 48.0 kHz      Frame rate : 31.250 FPS (1536 SPF)      Bit depth : 16 bits      Compression mode : Lossy      Stream size : 123 MiB (9%)      Alignment : Split accross interleaves      Interleave, duration : 42  ms (1.00 video frame)      Interleave, preload duration : 500  ms      Service kind : Complete Main   Audio #2      ID : 2      Format : AC-3      Format/Info : Audio Coding 3      Codec ID : 2000      Duration : 1 h 29 min      Bit rate mode : Constant      Bit rate : 224 kb/s      Channel(s) : 2 channels      Channel positions : Front: L R      Sampling rate : 48.0 kHz      Frame rate : 31.250 FPS (1536 SPF)      Bit depth : 16 bits      Compression mode : Lossy      Stream size : 143 MiB (10%)      Alignment : Split accross interleaves      Interleave, duration : 42  ms (1.00 video frame)      Interleave, preload duration : 500  ms      Service kind : Complete Main

Скриншот c названием фильма

Скриншоты




[Profile]  [PM] 
Display posts:    
Reply to topic

Current time is: 20-Jul 02:05

All times are UTC + 2



You cannot post new topics in this forum
You cannot reply to topics in this forum
You cannot edit your posts in this forum
You cannot delete your posts in this forum
You cannot vote in polls in this forum
You cannot attach files in this forum
You cannot download files in this forum