Джон Уик 4 / John Wick: Chapter 4 (Чад Стахелски / Chad Stahelski) [2023, США, Германия, Боевик, триллер, криминал, BDRemux 1080p] 3x MVO (HDRezka Studio, Jaskier, TVShows) + VO (Д. Есарев) + Ukr + Original (Eng) + Sub (rus, ukr, eng)

Reply to topic
 
Author
Message

Faust ®

Gender: Unknown

Longevity: 12 years

Posts: 23187

Reputation: 0 [+] [-]

Faust · Post 08-Jun-2023 09:45

[Quote] 

Джон Уик 4 / John Wick: Chapter 4
«Baba Yaga»
Страна: США, Германия
Жанр: Боевик, триллер, криминал
Год выпуска: 2023
Продолжительность: 02:49:18-Перевод 1: Профессиональный (многоголосый закадровый) HDRezka Studio
Перевод 2: Профессиональный (многоголосый закадровый) Jaskier 18+
Перевод 3: Профессиональный (многоголосый закадровый) TVShows
Перевод 4: Одноголосый (закадровый) Д.Есарев
Субтитры: Русские (Forced, Full(FOCS & RebelProject)), Украинские (Forced, Full), Английские (Full, SDH)
Оригинальная аудиодорожка: Aнглийский-Режиссёр: Чад Стахелски / Chad Stahelski
В ролях: Киану Ривз, Донни Йен, Лоуренс Фишбёрн, Йен Макшейн, Хироюки Санада, Билл Скарсгард, Лэнс Реддик, Наталия Тена, Скотт Эдкинс, Клэнси Браун, Шамир Андерсон, Рина Саваяма, Марко Сарор, Джордж Джорджиу, Брахим Ачаббаки, Велма Ричардсон
Описание: Оставляя за собой горы трупов, Джон Уик продолжает скрываться от всевозможных наёмных убийц, и теперь охоту на него возглавляет молодой и честолюбивый член Правления по имени Маркиз. Два управляющих отелями «Континенталь» в Нью-Йорке и Осаке, решившие по старой дружбе помочь своенравному киллеру, уже жестоко за это поплатились, но внезапно Джон узнаёт способ выбраться из этой, казалось бы, безвыходной ситуации.- -Тип релиза: BDRemux 1080p
Контейнер: MKV-Видео: AVC/H.264, 1920x1080, 22800 Kbps, 23.976 fps
Аудио 1: Русский | AC-3, 6 ch, 448 Kbps, 48.0 kHz MVO HDRezka Studio
Аудио 2: Русский | AC-3, 6 ch, 384 Kbps, 48.0 kHz MVO Jaskier 18+
Аудио 3: Русский | AC-3, 6 ch, 384 Kbps, 48.0 kHz MVO TVShows
Аудио 4: Русский | AC-3, 6 ch, 448 Kbps, 48.0 kHz VO Д. Есарев
Аудио 5: Украинский | AC-3, 6 ch, 384 Kbps, 48.0 kHz MVO DniproFilm
Аудио 6: Английский | TrueHD, 8.0 ch, 4165 Kbps, 48.0 kHz
Аудио 7: Английский | AC-3, 6 ch, 640 Kbps, 48.0 kHz
Формат субтитров: softsub (SRT)-

MediaInfo

General
Unique ID                                : 717462998279340825901250863640176725 (0x8A2DA82A20D644A75012D1318D6855)
Complete name                            : /Volumes/Promise Pegasus/John.Wick.Chapter.4.2023.BDRemux.1080p.pk.mkv
Format                                   : Matroska
Format version                           : Version 4
File size                                : 35.2 GiB
Duration                                 : 2 h 49 min
Overall bit rate mode                    : Variable
Overall bit rate                         : 29.7 Mb/s
Frame rate                               : 23.976 FPS
Movie name                               : John Wick: Chapter 4 (2023) BDRemux 1080p pk
Encoded date                             : 2023-06-05 22:58:14 UTC
Writing application                      : mkvmerge v73.0.0 ('25 or 6 to 4') 64-bit
Writing library                          : libebml v1.4.4 + libmatroska v1.7.1
Cover                                    : Yes
Attachments                              : cover.jpg / small_cover.jpg / cover.jpg
Video
ID                                       : 1
Format                                   : AVC
Format/Info                              : Advanced Video Codec
Format profile                           : High@L4.1
Format settings                          : CABAC / 4 Ref Frames
Format settings, CABAC                   : Yes
Format settings, Reference frames        : 4 frames
Codec ID                                 : V_MPEG4/ISO/AVC
Duration                                 : 2 h 49 min
Bit rate mode                            : Variable
Bit rate                                 : 22.8 Mb/s
Maximum bit rate                         : 36.5 Mb/s
Width                                    : 1 920 pixels
Height                                   : 1 080 pixels
Display aspect ratio                     : 16:9
Frame rate mode                          : Constant
Frame rate                               : 23.976 (24000/1001) FPS
Color space                              : YUV
Chroma subsampling                       : 4:2:0
Bit depth                                : 8 bits
Scan type                                : Progressive
Bits/(Pixel*Frame)                       : 0.459
Stream size                              : 27.0 GiB (77%)
Language                                 : English
Default                                  : Yes
Forced                                   : No
Audio #1
ID                                       : 2
Format                                   : AC-3
Format/Info                              : Audio Coding 3
Commercial name                          : Dolby Digital
Codec ID                                 : A_AC3
Duration                                 : 2 h 49 min
Bit rate mode                            : Constant
Bit rate                                 : 448 kb/s
Channel(s)                               : 6 channels
Channel layout                           : L R C LFE Ls Rs
Sampling rate                            : 48.0 kHz
Frame rate                               : 31.250 FPS (1536 SPF)
Compression mode                         : Lossy
Stream size                              : 542 MiB (2%)
Title                                    : Russian MVO HDRezka Studio
Language                                 : Russian
Service kind                             : Complete Main
Default                                  : Yes
Forced                                   : No
Audio #2
ID                                       : 3
Format                                   : AC-3
Format/Info                              : Audio Coding 3
Commercial name                          : Dolby Digital
Codec ID                                 : A_AC3
Duration                                 : 2 h 49 min
Bit rate mode                            : Constant
Bit rate                                 : 384 kb/s
Channel(s)                               : 6 channels
Channel layout                           : L R C LFE Ls Rs
Sampling rate                            : 48.0 kHz
Frame rate                               : 31.250 FPS (1536 SPF)
Compression mode                         : Lossy
Stream size                              : 465 MiB (1%)
Title                                    : Russian MVO Jaskier 18+
Language                                 : Russian
Service kind                             : Complete Main
Default                                  : No
Forced                                   : No
Audio #3
ID                                       : 4
Format                                   : AC-3
Format/Info                              : Audio Coding 3
Commercial name                          : Dolby Digital
Codec ID                                 : A_AC3
Duration                                 : 2 h 49 min
Bit rate mode                            : Constant
Bit rate                                 : 384 kb/s
Channel(s)                               : 6 channels
Channel layout                           : L R C LFE Ls Rs
Sampling rate                            : 48.0 kHz
Frame rate                               : 31.250 FPS (1536 SPF)
Compression mode                         : Lossy
Stream size                              : 465 MiB (1%)
Title                                    : Russian MVO TVShows
Language                                 : Russian
Service kind                             : Complete Main
Default                                  : No
Forced                                   : No
Audio #4
ID                                       : 5
Format                                   : AC-3
Format/Info                              : Audio Coding 3
Commercial name                          : Dolby Digital
Codec ID                                 : A_AC3
Duration                                 : 2 h 49 min
Bit rate mode                            : Constant
Bit rate                                 : 448 kb/s
Channel(s)                               : 6 channels
Channel layout                           : L R C LFE Ls Rs
Sampling rate                            : 48.0 kHz
Frame rate                               : 31.250 FPS (1536 SPF)
Compression mode                         : Lossy
Stream size                              : 542 MiB (2%)
Title                                    : Russian VO Д. Есарев
Language                                 : Russian
Service kind                             : Complete Main
Default                                  : No
Forced                                   : No
Audio #5
ID                                       : 6
Format                                   : AC-3
Format/Info                              : Audio Coding 3
Commercial name                          : Dolby Digital
Codec ID                                 : A_AC3
Duration                                 : 2 h 49 min
Bit rate mode                            : Constant
Bit rate                                 : 384 kb/s
Channel(s)                               : 6 channels
Channel layout                           : L R C LFE Ls Rs
Sampling rate                            : 48.0 kHz
Frame rate                               : 31.250 FPS (1536 SPF)
Compression mode                         : Lossy
Stream size                              : 465 MiB (1%)
Title                                    : Ukrainian MVO DniproFilm / HDRezka Studio
Language                                 : Ukrainian
Service kind                             : Complete Main
Default                                  : No
Forced                                   : No
Audio #6
ID                                       : 7
Format                                   : MLP FBA 16-ch
Format/Info                              : Meridian Lossless Packing FBA with 16-channel presentation
Commercial name                          : Dolby TrueHD with Dolby Atmos
Codec ID                                 : A_TRUEHD
Duration                                 : 2 h 49 min
Bit rate mode                            : Variable
Bit rate                                 : 4 165 kb/s
Maximum bit rate                         : 7 863 kb/s
Channel(s)                               : 8 channels
Channel layout                           : L R C LFE Ls Rs Lb Rb
Sampling rate                            : 48.0 kHz
Frame rate                               : 1 200.000 FPS (40 SPF)
Compression mode                         : Lossless
Stream size                              : 4.92 GiB (14%)
Title                                    : English Original TrueHD
Language                                 : English
Default                                  : No
Forced                                   : No
Number of dynamic objects                : 11
Bed channel count                        : 1 channel
Bed channel configuration                : LFE
Audio #7
ID                                       : 8
Format                                   : AC-3
Format/Info                              : Audio Coding 3
Commercial name                          : Dolby Digital
Codec ID                                 : A_AC3
Duration                                 : 2 h 49 min
Bit rate mode                            : Constant
Bit rate                                 : 640 kb/s
Channel(s)                               : 6 channels
Channel layout                           : L R C LFE Ls Rs
Sampling rate                            : 48.0 kHz
Frame rate                               : 31.250 FPS (1536 SPF)
Compression mode                         : Lossy
Stream size                              : 775 MiB (2%)
Title                                    : English Original
Language                                 : English
Service kind                             : Complete Main
Default                                  : No
Forced                                   : No
Text #1
ID                                       : 9
Format                                   : UTF-8
Codec ID                                 : S_TEXT/UTF8
Codec ID/Info                            : UTF-8 Plain Text
Duration                                 : 2 h 24 min
Bit rate                                 : 2 b/s
Frame rate                               : 0.008 FPS
Count of elements                        : 68
Stream size                              : 2.47 KiB (0%)
Title                                    : Russian forced
Language                                 : Russian
Default                                  : Yes
Forced                                   : No
Text #2
ID                                       : 10
Format                                   : UTF-8
Codec ID                                 : S_TEXT/UTF8
Codec ID/Info                            : UTF-8 Plain Text
Duration                                 : 2 h 38 min
Bit rate                                 : 41 b/s
Frame rate                               : 0.117 FPS
Count of elements                        : 1118
Stream size                              : 48.5 KiB (0%)
Title                                    : Russian full
Language                                 : Russian
Default                                  : No
Forced                                   : No
Text #3
ID                                       : 11
Format                                   : UTF-8
Codec ID                                 : S_TEXT/UTF8
Codec ID/Info                            : UTF-8 Plain Text
Duration                                 : 2 h 26 min
Bit rate                                 : 3 b/s
Frame rate                               : 0.007 FPS
Count of elements                        : 64
Stream size                              : 3.30 KiB (0%)
Title                                    : Ukrainian forced
Language                                 : Ukrainian
Default                                  : No
Forced                                   : No
Text #4
ID                                       : 12
Format                                   : UTF-8
Codec ID                                 : S_TEXT/UTF8
Codec ID/Info                            : UTF-8 Plain Text
Duration                                 : 2 h 37 min
Bit rate                                 : 33 b/s
Frame rate                               : 0.109 FPS
Count of elements                        : 1027
Stream size                              : 39.0 KiB (0%)
Title                                    : Ukrainian full
Language                                 : Ukrainian
Default                                  : No
Forced                                   : No
Text #5
ID                                       : 13
Format                                   : UTF-8
Codec ID                                 : S_TEXT/UTF8
Codec ID/Info                            : UTF-8 Plain Text
Duration                                 : 2 h 39 min
Bit rate                                 : 21 b/s
Frame rate                               : 0.111 FPS
Count of elements                        : 1063
Stream size                              : 25.4 KiB (0%)
Title                                    : English full
Language                                 : English
Default                                  : No
Forced                                   : No
Text #6
ID                                       : 14
Format                                   : UTF-8
Codec ID                                 : S_TEXT/UTF8
Codec ID/Info                            : UTF-8 Plain Text
Duration                                 : 2 h 48 min
Bit rate                                 : 28 b/s
Frame rate                               : 0.158 FPS
Count of elements                        : 1595
Stream size                              : 35.1 KiB (0%)
Title                                    : English SDH
Language                                 : English
Default                                  : No
Forced                                   : No
Menu
00:00:00.000                             : en:Chapter 01
00:14:45.259                             : en:Chapter 02
00:25:42.249                             : en:Chapter 03
00:38:32.560                             : en:Chapter 04
00:55:11.558                             : en:Chapter 05
01:06:41.915                             : en:Chapter 06
01:13:14.223                             : en:Chapter 07
01:22:05.170                             : en:Chapter 08
01:29:01.545                             : en:Chapter 09
01:36:19.691                             : en:Chapter 10
01:42:06.454                             : en:Chapter 11
01:48:22.496                             : en:Chapter 12
01:55:12.197                             : en:Chapter 13
02:04:14.530                             : en:Chapter 14
02:12:57.845                             : en:Chapter 15
02:22:38.425                             : en:Chapter 16

Скриншоты

[Profile]  [PM] 
Display posts:    
Reply to topic

Current time is: 20-Jul 02:04

All times are UTC + 2



You cannot post new topics in this forum
You cannot reply to topics in this forum
You cannot edit your posts in this forum
You cannot delete your posts in this forum
You cannot vote in polls in this forum
You cannot attach files in this forum
You cannot download files in this forum