Воскрешение / Resurrection (Эндрю Симанс / Andrew Semans) [2022, США, ужасы, криминал, драма, BDRemux 1080p] MVO (MVO Jaskier) + VO (Михаил Яроцкий) + Sub Eng + Original Eng

Reply to topic
 
Author
Message

Faust ®

Gender: Unknown

Longevity: 12 years

Posts: 23187

Reputation: 0 [+] [-]

Faust · Post 08-Jun-2023 13:50

[Quote] 

Воскрешение / Resurrection
Страна: США
Студия: Tango Entertainment, Secret Engine, Square Peg, Rosetory
Жанр: ужасы, криминал, драма
Год выпуска: 2022
Продолжительность: 01:44:18
Перевод 1: Профессиональный (многоголосый закадровый) MVO Jaskier
Перевод 2: Одноголосый закадровый Михаил Яроцкий
Субтитры: английские - Full SDH
Оригинальная аудиодорожка: английский
Режиссер: Эндрю Симанс / Andrew Semans
В ролях: Ребекка Холл, Тим Рот, Грэйс Кауфман, Майкл Эспер, Анджела Вонг Кэрбон, Джош Дреннен, Розмари Ховард, Уинсом Браун, Хайме Севальос
Описание: Маргарет 40 лет. Она живёт с дочерью-подростком Эбби, работает в сфере медицинских разработок и крутит роман с коллегой, но внезапно её размеренной жизни приходит конец. Заметив на конференции мужчину из своего прошлого, Маргарет в панике бежит домой проверить, что с Эбби всё в порядке. С этого момента женщина начинает видеть своего бывшего в общественных местах, и вскоре её накрывает паранойя, что он может навредить её дочери.
Доп. информация:
- Источник: Resurrection.2022.COMPLETE.BLURAY-INCUBO
- Дорожка Jaskier отсюда, дорожка М. Яроцкого отсюда

Тип релиза: BDRemux 1080p
Контейнер: MKV
Видео: H.264/AVC, 1920x1080, 16:9 (1,663, 5:3 Анаморф), 29.8 MB/s, 23.976 fps
Аудио 1: Русский, AC3, 5.1, 48 kHz, 384 kbps / MVO Jaskier
Аудио 2: Русский, AC3, 5.1, 48 kHz, 384 kbps / VO Михаил Яроцкий
Аудио 3: Английский, DTS HD MA, 5.1, 48 kHz, 3168 kbps, 24 bits / Original English*
Формат субтитров: softsub (SRT) / prerendered (Blu Ray/PGS/SUP)
Примечание:
* Core: DTS, 5.1, 48 kHz, 1509 kbps

MediaInfo

GeneralUnique ID                      : 209485822800810015396006829105306058405 (0x9D99807CE3CD0A4628EB79E7DFF6BEA5)Complete name                  : K:\Filmade 3\Resurrection.2022.COMPLETE.BLURAY-NOSEEDz\Resurrection.2022.COMPLETE.BLURAY-INCUBO\Resurrection.2022.1080p.BDREMUX.AVC-Нечипорук.mkvFormat                         : MatroskaFormat version                 : Version 4File size                      : 24.6 GiBDuration                       : 1 h 44 minOverall bit rate mode          : VariableOverall bit rate               : 33.8 Mb/sMovie name                     : Resurrection.2022.1080p.BDREMUX.AVC-НечипорукEncoded date                   : UTC 2023-06-07 20:19:59Writing application            : mkvmerge v77.0 ('Elemental') 64-bitWriting library                : libebml v1.4.4 + libmatroska v1.7.1
VideoID : 1ID in the original source medi : 4113 (0x1011)Format : AVCFormat/Info : Advanced Video CodecFormat profile : High@L4.1Format settings : CABAC / 4 Ref FramesFormat settings, CABAC : YesFormat settings, Reference fra : 4 framesFormat settings, GOP : M=3, N=12Codec ID : V_MPEG4/ISO/AVCDuration : 1 h 44 minBit rate mode : VariableBit rate : 29.8 Mb/sMaximum bit rate : 36.0 Mb/sWidth : 1 920 pixelsHeight : 1 080 pixelsDisplay aspect ratio : 16:9Frame rate mode : ConstantFrame rate : 23.976 (24000/1001) FPSColor space : YUVChroma subsampling : 4:2:0Bit depth : 8 bitsScan type : ProgressiveBits/(Pixel*Frame) : 0.599Stream size : 21.7 GiB (88%)Title : Resurrection.2022.1080p.BDREMUX.AVC-НечипорукLanguage : EnglishDefault : YesForced : NoOriginal source medium : Blu-ray
Audio #1ID : 2Format : AC-3Format/Info : Audio Coding 3Commercial name : Dolby DigitalCodec ID : A_AC3Duration : 1 h 44 minBit rate mode : ConstantBit rate : 384 kb/sChannel(s) : 6 channelsChannel layout : L R C LFE Ls RsSampling rate : 48.0 kHzFrame rate : 31.250 FPS (1536 SPF)Compression mode : LossyStream size : 286 MiB (1%)Title : MVO JaskierLanguage : RussianService kind : Complete MainDefault : YesForced : No
Audio #2ID : 3Format : AC-3Format/Info : Audio Coding 3Commercial name : Dolby DigitalCodec ID : A_AC3Duration : 1 h 44 minBit rate mode : ConstantBit rate : 384 kb/sChannel(s) : 6 channelsChannel layout : L R C LFE Ls RsSampling rate : 48.0 kHzFrame rate : 31.250 FPS (1536 SPF)Compression mode : LossyStream size : 286 MiB (1%)Title : VO Михаил ЯроцкийLanguage : RussianService kind : Complete MainDefault : NoForced : No
Audio #3ID : 4ID in the original source medi : 4353 (0x1101)Format : DTS XLLFormat/Info : Digital Theater SystemsCommercial name : DTS-HD Master AudioCodec ID : A_DTSDuration : 1 h 44 minBit rate mode : VariableBit rate : 3 168 kb/sChannel(s) : 6 channelsChannel layout : C L R Ls Rs LFESampling rate : 48.0 kHzFrame rate : 93.750 FPS (512 SPF)Bit depth : 24 bitsCompression mode : LosslessStream size : 2.31 GiB (9%)Title : Original 5.1Language : EnglishDefault : NoForced : NoOriginal source medium : Blu-ray
Text #1ID : 5Format : UTF-8Codec ID : S_TEXT/UTF8Codec ID/Info : UTF-8 Plain TextDuration : 1 h 39 minBit rate : 49 b/sFrame rate : 0.203 FPSCount of elements : 1209Stream size : 36.2 KiB (0%)Title : Full SDH SRTLanguage : EnglishDefault : NoForced : No
Text #2ID : 6ID in the original source medi : 4608 (0x1200)Format : PGSMuxing mode : zlibCodec ID : S_HDMV/PGSCodec ID/Info : Picture based subtitle format used on BDs/HD-DVDsDuration : 1 h 39 minBit rate : 32.3 kb/sFrame rate : 0.405 FPSCount of elements : 2418Stream size : 23.0 MiB (0%)Title : Full SDH PGSLanguage : EnglishDefault : NoForced : NoOriginal source medium : Blu-ray
Menu00:00:00.000 : en:Глава 0100:11:39.281 : en:Глава 0200:25:12.719 : en:Глава 0300:35:04.268 : en:Глава 0400:51:17.324 : en:Глава 0501:01:37.443 : en:Глава 0601:16:04.309 : en:Глава 0701:37:16.455 : en:Глава 08
[Profile]  [PM] 
Display posts:    
Reply to topic

Current time is: 20-Jul 02:39

All times are UTC + 2



You cannot post new topics in this forum
You cannot reply to topics in this forum
You cannot edit your posts in this forum
You cannot delete your posts in this forum
You cannot vote in polls in this forum
You cannot attach files in this forum
You cannot download files in this forum