Три мушкетера: Д’Артаньян / Les trois mousquetaires: D\'Artagnan (Мартин Бурбулон / Martin Bourboulon) [2023, Франция, Германия, Испания, Бельгия, боевик, приключения, история, WEB-DL 1080p] [Локализованный видеоряд] Dub (Пифагор)

Reply to topic
 
Author
Message

Faust ®

Gender: Unknown

Longevity: 12 years

Posts: 23202

Reputation: 0 [+] [-]

Faust · Post 08-Jun-2023 13:50

[Quote] 

Три мушкетера: Д’Артаньян
Les trois mousquetaires: D'Artagnan
-

Страна: Франция, Германия, Испания, Бельгия
Год выпуска: 2023
Жанр: боевик, приключения, история
Продолжительность: 01:56:12-Перевод: Профессиональный (дублированный) [Пифагор]
Оригинальная аудиодорожка: нет
Субтитры: нет-Режиссер: Мартин Бурбулон-В ролях: Франсуа Сивиль, Венсан Кассель, Ромен Дюрис, Пио Мармай, Ева Грин, Луи Гаррель, Вики Крипс, Лина Кудри, Джейкоб Форчун-Ллойд, Эрик Руф и др.-Описание: От Лувра до Букингемского дворца, от трущоб Парижа до осады Ла-Рошели… В королевстве, разобщенном религиозными войнами и угрозой Британского вторжения, прославленные мушкетеры скрестят шпаги, готовые отдать жизнь ради величия Франции.-imdb | kinopoisk | Сэмпл-Качество видео: WEB-DL 1080p [КиноПоиск]
Формат видео: MKV
Видео: AVC, 1920x808, 25.000 fps, 6 000 kbps
Аудио: Russian E-AC3 / 5.1 / 48 kHz / 448 kbps | Dub, Пифагор |-

Скриншоты



MediaInfo

Complete name               : Les.trois.mousquetaires.D'Artagnan.WEB-DL.KP.1080p-SOFCJ.mkvFormat                      : MatroskaFormat version              : Version 4File size                   : 5.12 GiBDuration                    : 1 h 56 minOverall bit rate            : 6 304 kb/sFrame rate                  : 25.000 FPSMovie name                  : Les.trois.mousquetaires.D'Artagnan.WEB-DL.KP.1080p-SOFCJEncoded date                : 2023-06-05 21:08:26 UTCWriting application         : mkvmerge v43.0.0 ('The Quartermaster') 64-bitWriting library             : libebml v1.3.10 + libmatroska v1.5.2Cover                       : YesAttachments                 : cover.jpg
VideoID : 1Format : AVCFormat/Info : Advanced Video CodecFormat profile : Progressive High@L4Format settings : CABAC / 5 Ref FramesFormat settings, CABAC : YesFormat settings, Reference : 5 framesCodec ID : V_MPEG4/ISO/AVCDuration : 1 h 56 minBit rate : 6 000 kb/sWidth : 1 920 pixelsHeight : 808 pixelsDisplay aspect ratio : 2.40:1Frame rate mode : ConstantFrame rate : 25.000 FPSColor space : YUVChroma subsampling : 4:2:0Bit depth : 8 bitsScan type : ProgressiveBits/(Pixel*Frame) : 0.155Stream size : 4.75 GiB (93%)Title : [WEB-DL KP by SOFCJ]Writing library : x264 core 157Encoding settings : cabac=1 / ref=5 / deblock=1:0:0 / analyse=0x3:0x133 / me=umh / subme=10 / psy=1 / psy_rd=1.00:0.00 / mixed_ref=1 / me_range=24 / chroma_me=1 / trellis=2 / 8x8dct=1 / cqm=0 / deadzone=21,11 / fast_pskip=1 / chroma_qp_offset=-2 / threads=25 / lookahead_threads=4 / sliced_threads=0 / nr=0 / decimate=1 / interlaced=0 / bluray_compat=0 / stitchable=1 / constrained_intra=0 / bframes=8 / b_pyramid=2 / b_adapt=2 / b_bias=0 / direct=3 / weightb=1 / open_gop=0 / weightp=2 / keyint=250 / keyint_min=25 / scenecut=40 / intra_refresh=0 / rc_lookahead=60 / rc=2pass / mbtree=1 / bitrate=6000 / ratetol=1.0 / qcomp=0.60 / qpmin=0 / qpmax=69 / qpstep=4 / cplxblur=20.0 / qblur=0.5 / vbv_maxrate=6600 / vbv_bufsize=12000 / nal_hrd=none / filler=0 / ip_ratio=1.40 / aq=1:1.00Language : RussianDefault : YesForced : NoColor range : LimitedColor primaries : BT.709Transfer characteristics : BT.709Matrix coefficients : BT.709
AudioID : 2Format : E-AC-3Format/Info : Enhanced AC-3Commercial name : Dolby Digital PlusCodec ID : A_EAC3Duration : 1 h 56 minBit rate mode : ConstantBit rate : 448 kb/sChannel(s) : 6 channelsChannel layout : L R C LFE Ls RsSampling rate : 48.0 kHzFrame rate : 31.250 FPS (1536 SPF)Compression mode : LossyStream size : 372 MiB (7%)Title : DubLanguage : RussianService kind : Complete MainDefault : YesForced : No
[Profile]  [PM] 
Display posts:    
Reply to topic

Current time is: 21-Jul 21:37

All times are UTC + 2



You cannot post new topics in this forum
You cannot reply to topics in this forum
You cannot edit your posts in this forum
You cannot delete your posts in this forum
You cannot vote in polls in this forum
You cannot attach files in this forum
You cannot download files in this forum