Высота и пространство / Above & Beyond (Стюарт Александр / Stuart Alexander) [2001, США, драма, мелодрама, WEB-DL 1080p] MVO + Sub Eng + Original Eng

Reply to topic
 
Author
Message

Faust ®

Gender: Unknown

Longevity: 12 years

Posts: 23187

Reputation: 0 [+] [-]

Faust · Post 08-Jun-2023 13:50

[Quote] 

Высота и пространство / Above & Beyond
Страна: США
Жанр: драма, мелодрама
Год выпуска: 2001
Продолжительность: 01:26:46
Перевод: Профессиональный (многоголосый закадровый)
Субтитры: английские
Оригинальная аудиодорожка: английский
Режиссер: Стюарт Александр / Stuart Alexander
В ролях: Костас Мэндилор
Адам Болдуин
Александра Пол
Роберт Костанцо
Венди Гарднер
Эллиотт Александр
Майкл Арата
Ленор Бэнкс
Карл Т. Эванс
Описание: Полицейский Питер, влюблённый в супругу своего коллеги и лучшего друга, мучается чувством вины из-за того, что в ходе выполнения задания случайно ранил его, что привело к частичному параличу. Этот несчастный случай заставляет героев задуматься об истинных причинах инцидента.
Доп. информация: Дорожку синхронизировал ale_x2008
За дорожку благодарим - sorborello

Релиз
Сэмпл: https://www.sendspace.com/file/qxats1
Тип релиза: WEB-DL 1080p
Контейнер: MKV
Видео: MPEG4 Video (H264) 1920x1080 23.976fps Bit rate 11.5 Mb/s
Аудио 1: Dolby AC3 48000Hz 2 ch (mono) 192kbps
Аудио 2: E-AC-3 48000Hz 2 ch 224kbps
Формат субтитров: softsub (SRT)

MediaInfo

Высота и пространство (Above & Beyond) [by ale_x2008].mkvFormat                      : MatroskaFormat version              : Version 4File size                   : 7.21 GiBDuration                    : 1 h 26 minOverall bit rate mode       : VariableOverall bit rate            : 11.9 Mb/sFrame rate                  : 23.976 FPSEncoded date                : 2023-06-07 14:44:03 UTCWriting application         : mkvmerge v71.0.0 ('Altitude') 64-bitWriting library             : libebml v1.4.4 + libmatroska v1.7.1
VideoID : 1Format : AVCFormat/Info : Advanced Video CodecFormat profile : High@L4Format settings : CABAC / 4 Ref FramesFormat settings, CABAC : YesFormat settings, Reference : 4 framesCodec ID : V_MPEG4/ISO/AVCDuration : 1 h 26 minBit rate mode : VariableBit rate : 11.5 Mb/sMaximum bit rate : 15.0 Mb/sWidth : 1 920 pixelsHeight : 1 080 pixelsDisplay aspect ratio : 16:9Frame rate mode : ConstantFrame rate : 23.976 (24000/1001) FPSColor space : YUVChroma subsampling : 4:2:0Bit depth : 8 bitsScan type : ProgressiveBits/(Pixel*Frame) : 0.231Stream size : 6.96 GiB (96%)Writing library : x264 core 148 r2623 d5b2374Encoding settings : cabac=1 / ref=4 / deblock=1:-1:-1 / analyse=0x3:0x133 / me=umh / subme=9 / psy=1 / psy_rd=1.00:0.15 / mixed_ref=1 / me_range=24 / chroma_me=1 / trellis=2 / 8x8dct=1 / cqm=0 / deadzone=21,11 / fast_pskip=1 / chroma_qp_offset=-3 / threads=34 / lookahead_threads=5 / sliced_threads=0 / nr=150 / decimate=1 / interlaced=0 / bluray_compat=0 / constrained_intra=0 / bframes=8 / b_pyramid=2 / b_adapt=2 / b_bias=0 / direct=3 / weightb=1 / open_gop=0 / weightp=2 / keyint=120 / keyint_min=61 / scenecut=0 / intra_refresh=0 / rc_lookahead=120 / rc=crf / mbtree=1 / crf=18.0 / qcomp=0.60 / qpmin=0 / qpmax=69 / qpstep=4 / vbv_maxrate=15000 / vbv_bufsize=31250 / crf_max=0.0 / nal_hrd=vbr / filler=0 / ip_ratio=1.40 / aq=3:1.00Default : YesForced : NoColor range : LimitedColor primaries : BT.709Transfer characteristics : BT.709Matrix coefficients : BT.709
Audio #1ID : 2Format : AC-3Format/Info : Audio Coding 3Commercial name : Dolby DigitalCodec ID : A_AC3Duration : 1 h 26 minBit rate mode : ConstantBit rate : 192 kb/sChannel(s) : 2 channelsChannel layout : L RSampling rate : 48.0 kHzFrame rate : 31.250 FPS (1536 SPF)Compression mode : LossyStream size : 119 MiB (2%)Language : RussianService kind : Complete MainDefault : YesForced : No
Audio #2ID : 3Format : E-AC-3Format/Info : Enhanced AC-3Commercial name : Dolby Digital PlusCodec ID : A_EAC3Duration : 1 h 26 minBit rate mode : ConstantBit rate : 224 kb/sChannel(s) : 2 channelsChannel layout : L RSampling rate : 48.0 kHzFrame rate : 31.250 FPS (1536 SPF)Compression mode : LossyStream size : 139 MiB (2%)Language : EnglishService kind : Complete MainDefault : NoForced : No
TextID : 4Format : UTF-8Codec ID : S_TEXT/UTF8Codec ID/Info : UTF-8 Plain TextDuration : 1 h 25 minBit rate : 58 b/sFrame rate : 0.265 FPSCount of elements : 1358Stream size : 36.4 KiB (0%)Language : EnglishDefault : NoForced : No

Скриншоты


[Profile]  [PM] 
Display posts:    
Reply to topic

Current time is: 20-Jul 02:39

All times are UTC + 2



You cannot post new topics in this forum
You cannot reply to topics in this forum
You cannot edit your posts in this forum
You cannot delete your posts in this forum
You cannot vote in polls in this forum
You cannot attach files in this forum
You cannot download files in this forum