Шазам! / Shazam! (Дэвид Ф. Сандберг / David F. Sandberg) [2019, США, фэнтези, боевик, комедия, приключения, BDRip 720p] Dub (EUR) + MVO (СВ Студия) + MVO (HDRezka Studio) + Sub Rus, Eng + Original Eng

Reply to topic
 
Author
Message

Faust ®

Gender: Unknown

Longevity: 12 years

Posts: 23187

Reputation: 0 [+] [-]

Faust · Post 08-Jun-2023 17:55

[Quote] 

Шазам! / Shazam!
Страна: США
Жанр: фэнтези, боевик, комедия, приключения
Год выпуска: 2019
Продолжительность: 02:11:43
Перевод 1: Профессиональный (дублированный) EUR
Перевод 2: Профессиональный (многоголосый закадровый) СВ Студия
Перевод 3: Профессиональный (многоголосый закадровый) HDRezka Studio
Субтитры: русские (forced, Blu-Ray, FOCS), английские (full, SDH)
Оригинальная аудиодорожка: английский
Режиссер: Дэвид Ф. Сандберг / David F. Sandberg
В ролях: Закари Ливай, Эшер Энджел, Мишель Борт, Джимон Хонсу, Грэйс Фултон, Марк Стронг, Джек Дилан Грейзер, Марта Миланс, Мэган Гуд, Адам Броди, Фэйти Херман, Йен Чен, Росс Батлер, Йован Арман, Ди Джей Котрона
Описание: В каждом из нас живет супергерой, нужна лишь толика магии, чтобы он проявил себя. Билли Бэтсон должен прокричать всего лишь одно слово - ШАЗАМ! - чтобы из сообразительного четырнадцатилетнего мальчишки превратиться во вполне себе взрослого супергероя Шазама, а все благодаря древнему волшебнику. В душе он остается ребенком, пусть и во взрослом могучем теле, поэтому поступает так, как поступил бы любой подросток, получивший сверхспособности, - оттягивается на полную катушку в этой подросшей версии себя самого! А умеет ли он летать? А есть ли у него рентгеновское зрение? Может ли он стрелять молниями из рук? А может ли пропустить контрольную по обществознанию? Шазам проверяет границы своих возможностей с бесшабашностью расшалившегося ребенка.

Релиз от: by
Тип релиза: BDRip 720p
Контейнер: MKV
Видео: MPEG-4 AVC / 6200 kbps / 1280x536 / 23,976 fps / 2.40:1 / High Profile 4.1
Аудио 1: Russian: 48 kHz, AC3, 3/2 (L,C,R,l,r) + LFE ch, ~448 kbps avg |Дубляж, EUR|
Аудио 2: Russian: 48 kHz, AC3, 2/0 (L,R) ch, ~192 kbps avg |Многоголосый закадровый, СВ Студия|
Аудио 3: Russian: 48 kHz, AC3, 3/2 (L,C,R,l,r) + LFE ch, ~448 kbps avg |Многоголосый закадровый, HDRezka Studio|
Аудио 4: English: 48 kHz, AC3, 3/2 (L,C,R,l,r) + LFE ch, ~448 kbps avg

MediaInfo

GeneralUnique ID                      : 242538496908967149480766293898725878508 (0xB67737238F920E56866CB4E420BAEAEC)Complete name                  : D:\фильмы\Shazam!.2019.720p.Bluray.Kinozal-Райдэн.mkvFormat                         : MatroskaFormat version                 : Version 4 / Version 2File size                      : 7.12 GiBDuration                       : 2h 11mnOverall bit rate               : 7 736 KbpsEncoded date                   : UTC 2023-06-04 19:51:37Writing application            : mkvmerge v6.9.1 ('Blue Panther') 32bit built on Apr 18 2014 18:15:44Writing library                : libebml v1.3.0 + libmatroska v1.4.1
VideoID : 1Format : AVCFormat/Info : Advanced Video CodecFormat profile : High@L4.1Format settings, CABAC : YesFormat settings, ReFrames : 12 framesCodec ID : V_MPEG4/ISO/AVCDuration : 2h 11mnBit rate : 6 200 KbpsWidth : 1 280 pixelsHeight : 536 pixelsDisplay aspect ratio : 2.40:1Frame rate mode : ConstantFrame rate : 23.976 fpsColor space : YUVChroma subsampling : 4:2:0Bit depth : 8 bitsScan type : ProgressiveBits/(Pixel*Frame) : 0.377Stream size : 5.56 GiB (78%)Title : Release for Kinozal by РайдэнWriting library : x264 core 164 r3107 a8b68ebEncoding settings : cabac=1 / ref=12 / deblock=1:-1:-1 / analyse=0x3:0x113 / me=umh / subme=11 / psy=1 / psy_rd=1.00:0.00 / mixed_ref=1 / me_range=32 / chroma_me=1 / trellis=2 / 8x8dct=1 / cqm=0 / deadzone=21,11 / fast_pskip=0 / chroma_qp_offset=-2 / threads=3 / lookahead_threads=1 / sliced_threads=0 / nr=0 / decimate=0 / interlaced=0 / bluray_compat=0 / constrained_intra=0 / bframes=10 / b_pyramid=2 / b_adapt=2 / b_bias=0 / direct=3 / weightb=1 / open_gop=0 / weightp=2 / keyint=240 / keyint_min=23 / scenecut=40 / intra_refresh=0 / rc=2pass / mbtree=0 / bitrate=6200 / ratetol=1.0 / qcomp=0.60 / qpmin=0 / qpmax=69 / qpstep=4 / cplxblur=20.0 / qblur=0.5 / ip_ratio=1.40 / pb_ratio=1.30 / aq=1:0.80Language : EnglishDefault : YesForced : No
Audio #1ID : 2Format : AC-3Format/Info : Audio Coding 3Mode extension : CM (complete main)Format settings, Endianness : BigCodec ID : A_AC3Duration : 2h 11mnBit rate mode : ConstantBit rate : 448 KbpsChannel(s) : 6 channelsChannel positions : Front: L C R, Side: L R, LFESampling rate : 48.0 KHzBit depth : 16 bitsCompression mode : LossyStream size : 422 MiB (6%)Title : Dub (Blu-Ray)Language : RussianDefault : YesForced : No
Audio #2ID : 3Format : AC-3Format/Info : Audio Coding 3Mode extension : CM (complete main)Format settings, Endianness : BigCodec ID : A_AC3Duration : 2h 11mnBit rate mode : ConstantBit rate : 192 KbpsChannel(s) : 2 channelsChannel positions : Front: L RSampling rate : 48.0 KHzBit depth : 16 bitsCompression mode : LossyStream size : 181 MiB (2%)Title : MVO (СВ Студия)Language : RussianDefault : NoForced : No
Audio #3ID : 4Format : AC-3Format/Info : Audio Coding 3Mode extension : CM (complete main)Format settings, Endianness : BigCodec ID : A_AC3Duration : 2h 11mnBit rate mode : ConstantBit rate : 448 KbpsChannel(s) : 6 channelsChannel positions : Front: L C R, Side: L R, LFESampling rate : 48.0 KHzBit depth : 16 bitsCompression mode : LossyStream size : 422 MiB (6%)Title : MVO (HDRezka Studio)Language : RussianDefault : NoForced : No
Audio #4ID : 5Format : AC-3Format/Info : Audio Coding 3Mode extension : CM (complete main)Format settings, Endianness : BigCodec ID : A_AC3Duration : 2h 11mnBit rate mode : ConstantBit rate : 448 KbpsChannel(s) : 6 channelsChannel positions : Front: L C R, Side: L R, LFESampling rate : 48.0 KHzBit depth : 16 bitsCompression mode : LossyStream size : 422 MiB (6%)Language : EnglishDefault : NoForced : No
Text #1ID : 6Format : UTF-8Codec ID : S_TEXT/UTF8Codec ID/Info : UTF-8 Plain TextTitle : forcedLanguage : RussianDefault : YesForced : No
Text #2ID : 7Format : UTF-8Codec ID : S_TEXT/UTF8Codec ID/Info : UTF-8 Plain TextTitle : Blu-RayLanguage : RussianDefault : NoForced : No
Text #3ID : 8Format : UTF-8Codec ID : S_TEXT/UTF8Codec ID/Info : UTF-8 Plain TextTitle : FOCSLanguage : RussianDefault : NoForced : No
Text #4ID : 9Format : UTF-8Codec ID : S_TEXT/UTF8Codec ID/Info : UTF-8 Plain TextTitle : fullLanguage : EnglishDefault : NoForced : No
Text #5ID : 10Format : UTF-8Codec ID : S_TEXT/UTF8Codec ID/Info : UTF-8 Plain TextTitle : SDHLanguage : EnglishDefault : NoForced : No
Menu00:00:00.000 : :Chapter 0100:08:18.789 : :Chapter 0200:15:11.285 : :Chapter 0300:25:22.395 : :Chapter 0400:31:57.624 : :Chapter 0500:39:00.254 : :Chapter 0600:50:07.713 : :Chapter 0701:01:28.810 : :Chapter 0801:08:51.502 : :Chapter 0901:16:40.470 : :Chapter 1001:24:29.355 : :Chapter 1101:34:00.676 : :Chapter 1201:43:01.175 : :Chapter 1301:52:53.850 : :Chapter 1402:00:44.445 : :Chapter 15

x264 Log

x264 [info]: frame I:1811 Avg QP:15.01 size:152166
x264 [info]: frame P:42398 Avg QP:17.83 size: 57935
x264 [info]: frame B:145276 Avg QP:19.34 size: 23337
x264 [info]: consecutive B-frames: 3.1% 2.9% 8.5% 15.8% 18.0% 45.5% 4.2% 0.6% 0.5% 0.5% 0.5%

Скриншоты

[Profile]  [PM] 
Display posts:    
Reply to topic

Current time is: 20-Jul 02:38

All times are UTC + 2



You cannot post new topics in this forum
You cannot reply to topics in this forum
You cannot edit your posts in this forum
You cannot delete your posts in this forum
You cannot vote in polls in this forum
You cannot attach files in this forum
You cannot download files in this forum