Рикошет / Ricochet (Ник Гомез / Nick Gomez) [2011, США, драма, криминал, детектив, BDRemux 1080p] Dub (Sony Sci Fi) + DVO + Original Eng + Sub Eng

Reply to topic
 
Author
Message

Faust ®

Gender: Unknown

Longevity: 12 years

Posts: 23202

Reputation: 0 [+] [-]

Faust · Post 08-Jun-2023 17:55

[Quote] 

Рикошет / Ricochet
Год выпуска: 2011
Страна: США
Жанр: драма, криминал, детектив
Продолжительность: 01:29:18
Перевод 1: Профессиональный (дублированный) Sony Sci Fi
Перевод 2: Профессиональный (двухголосый, закадровый)
Оригинальная аудиодорожка: английский
Cубтитры: английские (full)

Режиссер:
Ник Гомез / Nick Gomez
В ролях: Джон Корбетт, Джули Бенц, Келли Овертон, Хааз Слейман, Кадим Хардисон, Гэри Коул, Индиго, Майкл Арата, Гэри Граббс, Джеффри Блейк
Описание: После того, как судья оправдывает подсудимого, детектив Хатчер становится на путь правосудия. Спустя несколько недель после оправдания, Элиз Лэрд, жена судьи, сталкивается с грабителем и убивает его в доме...-imdb | kinopoisk | Сэмпл-Спасибо Sonntag204 за дорожку дубляжа.-Качество: BDRemux 1080p
Формат видео: MKV
Видео: 1920x1080, 23.976 fps, MPEG-2, ~21,9 Mbps
Аудио Rus: AC3 / 2.0 / 48 kHz / 192 kbps DUB
Аудио Rus: AC3 / 2.0 / 48 kHz / 192 kbps DVO
Аудио Eng: DTS-HD MA / 2.0 / 48 kHz / ~1734 kbps / 16 bit Оригинал
Формат субтитров: softsub (SRT)

MediaInfo

GeneralComplete name                  : Ricochet.2011.BDRemux.mkvFormat                         : MatroskaFormat version                 : Version 4File size                      : 15.0 GiBDuration                       : 1 h 29 minOverall bit rate mode          : VariableOverall bit rate               : 24.0 Mb/sFrame rate                     : 23.976 FPSEncoded date                   : 2023-05-26 22:11:15 UTCWriting application            : mkvmerge v73.0.0 ('25 or 6 to 4') 64-bitWriting library                : libebml v1.4.4 + libmatroska v1.7.1Cover                          : YesAttachments                    : cover.jpg
VideoID : 1Format : MPEG VideoFormat version : Version 2Format profile : Main@HighFormat settings : CustomMatrix / BVOPFormat settings, BVOP : YesFormat settings, Matrix : CustomFormat settings, GOP : M=3, N=12Codec ID : V_MPEG2Codec ID/Info : MPEG 1 or 2 VideoDuration : 1 h 29 minBit rate mode : VariableBit rate : 21.9 Mb/sMaximum bit rate : 35.0 Mb/sWidth : 1 920 pixelsHeight : 1 080 pixelsDisplay aspect ratio : 16:9Frame rate mode : ConstantFrame rate : 23.976 (24000/1001) FPSColor space : YUVChroma subsampling : 4:2:0Bit depth : 8 bitsScan type : ProgressiveCompression mode : LossyBits/(Pixel*Frame) : 0.440Time code of first frame : 00:00:00:00Time code source : Group of pictures headerGOP, Open/Closed : OpenGOP, Open/Closed of first fram : ClosedStream size : 13.6 GiB (91%)Language : EnglishDefault : YesForced : No
Audio #1ID : 2Format : AC-3Format/Info : Audio Coding 3Commercial name : Dolby DigitalCodec ID : A_AC3Duration : 1 h 29 minBit rate mode : ConstantBit rate : 192 kb/sChannel(s) : 2 channelsChannel layout : L RSampling rate : 48.0 kHzFrame rate : 31.250 FPS (1536 SPF)Compression mode : LossyStream size : 123 MiB (1%)Title : DubLanguage : RussianService kind : Complete MainDefault : YesForced : No
Audio #2ID : 3Format : AC-3Format/Info : Audio Coding 3Commercial name : Dolby DigitalCodec ID : A_AC3Duration : 1 h 29 minBit rate mode : ConstantBit rate : 192 kb/sChannel(s) : 2 channelsChannel layout : L RSampling rate : 48.0 kHzFrame rate : 31.250 FPS (1536 SPF)Compression mode : LossyStream size : 123 MiB (1%)Title : DVOLanguage : RussianService kind : Complete MainDefault : NoForced : No
Audio #3ID : 4Format : DTS XLLFormat/Info : Digital Theater SystemsCommercial name : DTS-HD Master AudioCodec ID : A_DTSDuration : 1 h 29 minBit rate mode : VariableBit rate : 1 734 kb/sChannel(s) : 2 channelsChannel layout : L RSampling rate : 48.0 kHzFrame rate : 93.750 FPS (512 SPF)Bit depth : 16 bitsCompression mode : LosslessStream size : 1.08 GiB (7%)Title : OriginalLanguage : EnglishDefault : NoForced : No
TextID : 5Format : UTF-8Codec ID : S_TEXT/UTF8Codec ID/Info : UTF-8 Plain TextDuration : 1 h 28 minBit rate : 65 b/sFrame rate : 0.265 FPSCount of elements : 1399Stream size : 42.4 KiB (0%)Language : EnglishDefault : NoForced : No
Menu00:00:00.000 : en:Chapter 100:04:47.037 : en:Chapter 200:14:07.430 : en:Chapter 300:26:41.350 : en:Chapter 400:37:13.773 : en:Chapter 500:49:56.785 : en:Chapter 601:02:38.630 : en:Chapter 701:16:20.326 : en:Chapter 801:28:34.768 : en:Chapter 9

Скриншоты


[Profile]  [PM] 
Display posts:    
Reply to topic

Current time is: 21-Jul 21:36

All times are UTC + 2



You cannot post new topics in this forum
You cannot reply to topics in this forum
You cannot edit your posts in this forum
You cannot delete your posts in this forum
You cannot vote in polls in this forum
You cannot attach files in this forum
You cannot download files in this forum