Человек из Торонто / The Man from Toronto (Патрик Хьюз / Patrick Hughes) [2022, США, боевик, триллер, комедия, приключения, BDRemux 1080p] 2х MVO (Jaskier, TVShows) + Dub Ukr + Sub (Rus, Ukr, Eng etc.) + Original Eng

Reply to topic
 
Author
Message

Faust ®

Gender: Unknown

Longevity: 12 years

Posts: 23187

Reputation: 0 [+] [-]

Faust · Post 08-Jun-2023 17:55

[Quote] 

Человек из Торонто
The Man from Toronto

Страна: США
Жанр: Боевик, триллер, комедия, приключения
Год выпуска: 2022
Продолжительность: 01:50:00
Перевод 1: Профессиональный (многоголосый закадровый) Jaskier ненормативная лексика не много
Перевод 2: Профессиональный (многоголосый закадровый) TVShows
Субтитры: Русские, украинские (forced, full), английские (forced, full), французские, немецкие, испанские, финские, шведские, датские, норвежские, китайские
Оригинальная аудиодорожка: Английский
Режиссер: Патрик Хьюз / Patrick Hughes
В ролях: Кевин Харт, Вуди Харрельсон, Жасмин Мэтьюз, Кейли Куоко, Пирсон Фод, Эллен Баркин, Жанкарлос Канела, Ронни Роу, Алехандро Де Хойос, Лила Лорен
Описание: В результате ошибки неуклюжий предприниматель и знаменитый наемный убийца по прозвищу Человек из Торонто вынуждены действовать заодно, чтобы остаться в живых.
Спасибо kro44i за дорожку

Тип релиза: BDRemux 1080p
Контейнер: MKV
Видео: MPEG-4 AVC, 1080p, 1920:1080 (16:9), 27856 kbps, 23.976 fps
Аудио 1: АС3, 6 ch, 48 kHz, 448 kbps Русский MVO Jaskier ненормативная лексика
Аудио 2: АС3, 2 ch, 48 kHz, 192 kbps Русский MVO TVShows
Аудио 3: Е-АС3, 6 ch, 48 kHz, 640 kbps Украинский Dub
Аудио 4: DTS-HD MA, 6 ch, 48 kHz, 2227 kbps, 16-bit (DTS Core 6 ch, 48 kHz, 1509 kbps, 16-bit) Английский
Формат субтитров: SRT

MediaInfo

GeneralUnique ID                                : 171408060996706116860039228306895725567 (0x80F3FDE28F8618DF316C0DF2C818E3FF)Complete name                            : G:\The.Man.from.Toronto.2022.REMUX.mkvFormat                                   : MatroskaFormat version                           : Version 4File size                                : 24.1 GiBDuration                                 : 1 h 49 minOverall bit rate mode                    : VariableOverall bit rate                         : 31.4 Mb/sEncoded date                             : UTC 2023-06-08 06:44:57Writing application                      : mkvmerge v20.0.0 ('I Am The Sun') 64-bitWriting library                          : libebml v1.3.5 + libmatroska v1.4.8
VideoID : 1Format : AVCFormat/Info : Advanced Video CodecFormat profile : High@L4.1Format settings : CABAC / 2 Ref FramesFormat settings, CABAC : YesFormat settings, Reference frames : 2 framesFormat settings, GOP : M=1, N=10Codec ID : V_MPEG4/ISO/AVCDuration : 1 h 49 minBit rate mode : VariableBit rate : 27.9 Mb/sWidth : 1 920 pixelsHeight : 1 080 pixelsDisplay aspect ratio : 16:9Frame rate mode : ConstantFrame rate : 23.976 (24000/1001) FPSColor space : YUVChroma subsampling : 4:2:0Bit depth : 8 bitsScan type : ProgressiveBits/(Pixel*Frame) : 0.560Stream size : 21.4 GiB (89%)Language : EnglishDefault : YesForced : No
Audio #1ID : 2Format : AC-3Format/Info : Audio Coding 3Commercial name : Dolby DigitalCodec ID : A_AC3Duration : 1 h 49 minBit rate mode : ConstantBit rate : 448 kb/sChannel(s) : 6 channelsChannel layout : L R C LFE Ls RsSampling rate : 48.0 kHzFrame rate : 31.250 FPS (1536 SPF)Compression mode : LossyStream size : 352 MiB (1%)Title : MVO Jaskier ненормативная лексикаLanguage : RussianService kind : Complete MainDefault : YesForced : No
Audio #2ID : 3Format : AC-3Format/Info : Audio Coding 3Commercial name : Dolby DigitalCodec ID : A_AC3Duration : 1 h 49 minBit rate mode : ConstantBit rate : 192 kb/sChannel(s) : 2 channelsChannel layout : L RSampling rate : 48.0 kHzFrame rate : 31.250 FPS (1536 SPF)Compression mode : LossyStream size : 151 MiB (1%)Title : MVO TVShowsLanguage : RussianService kind : Complete MainDefault : NoForced : No
Audio #3ID : 4Format : E-AC-3Format/Info : Enhanced AC-3Commercial name : Dolby Digital PlusCodec ID : A_EAC3Duration : 1 h 49 minBit rate mode : ConstantBit rate : 640 kb/sChannel(s) : 6 channelsChannel layout : L R C LFE Ls RsSampling rate : 48.0 kHzFrame rate : 31.250 FPS (1536 SPF)Compression mode : LossyStream size : 503 MiB (2%)Title : DubLanguage : UkrainianService kind : Complete MainDefault : NoForced : No
Audio #4ID : 5Format : DTS XLLFormat/Info : Digital Theater SystemsCommercial name : DTS-HD Master AudioCodec ID : A_DTSDuration : 1 h 49 minBit rate mode : VariableBit rate : 2 227 kb/sChannel(s) : 6 channelsChannel layout : C L R Ls Rs LFESampling rate : 48.0 kHzFrame rate : 93.750 FPS (512 SPF)Bit depth : 16 bitsCompression mode : LosslessStream size : 1.71 GiB (7%)Language : EnglishDefault : NoForced : No
Text #1ID : 6Format : UTF-8Codec ID : S_TEXT/UTF8Codec ID/Info : UTF-8 Plain TextDuration : 1 h 48 minBit rate : 109 b/sCount of elements : 1860Stream size : 87.4 KiB (0%)Language : RussianDefault : NoForced : No
Text #2ID : 7Format : UTF-8Codec ID : S_TEXT/UTF8Codec ID/Info : UTF-8 Plain TextDuration : 1 h 46 minBit rate : 1 b/sCount of elements : 44Stream size : 1.49 KiB (0%)Title : forcedLanguage : UkrainianDefault : NoForced : No
Text #3ID : 8Format : UTF-8Codec ID : S_TEXT/UTF8Codec ID/Info : UTF-8 Plain TextDuration : 1 h 48 minBit rate : 109 b/sCount of elements : 1878Stream size : 87.3 KiB (0%)Language : UkrainianDefault : NoForced : No
Text #4ID : 9Format : UTF-8Codec ID : S_TEXT/UTF8Codec ID/Info : UTF-8 Plain TextDuration : 16 s 850 msBit rate : 33 b/sCount of elements : 4Stream size : 70.0 Bytes (0%)Title : forcedLanguage : EnglishDefault : NoForced : No
Text #5ID : 10Format : UTF-8Codec ID : S_TEXT/UTF8Codec ID/Info : UTF-8 Plain TextDuration : 1 h 44 minBit rate : 81 b/sCount of elements : 1937Stream size : 62.5 KiB (0%)Language : EnglishDefault : NoForced : No
Text #6ID : 11Format : UTF-8Codec ID : S_TEXT/UTF8Codec ID/Info : UTF-8 Plain TextDuration : 1 h 48 minBit rate : 66 b/sCount of elements : 1769Stream size : 52.8 KiB (0%)Title : FrenchLanguage : FrenchDefault : NoForced : No
Text #7ID : 12Format : UTF-8Codec ID : S_TEXT/UTF8Codec ID/Info : UTF-8 Plain TextDuration : 1 h 48 minBit rate : 70 b/sCount of elements : 1772Stream size : 56.2 KiB (0%)Title : GermanLanguage : GermanDefault : NoForced : No
Text #8ID : 13Format : UTF-8Codec ID : S_TEXT/UTF8Codec ID/Info : UTF-8 Plain TextDuration : 1 h 48 minBit rate : 61 b/sCount of elements : 1815Stream size : 49.1 KiB (0%)Title : European SpanishLanguage : SpanishDefault : NoForced : No
Text #9ID : 14Format : UTF-8Codec ID : S_TEXT/UTF8Codec ID/Info : UTF-8 Plain TextDuration : 1 h 48 minBit rate : 67 b/sCount of elements : 1520Stream size : 53.5 KiB (0%)Title : FinnishLanguage : FinnishDefault : NoForced : No
Text #10ID : 15Format : UTF-8Codec ID : S_TEXT/UTF8Codec ID/Info : UTF-8 Plain TextDuration : 1 h 48 minBit rate : 65 b/sCount of elements : 1601Stream size : 52.1 KiB (0%)Title : SwedishLanguage : SwedishDefault : NoForced : No
Text #11ID : 16Format : UTF-8Codec ID : S_TEXT/UTF8Codec ID/Info : UTF-8 Plain TextDuration : 1 h 48 minBit rate : 65 b/sCount of elements : 1783Stream size : 52.3 KiB (0%)Title : DanishLanguage : DanishDefault : NoForced : No
Text #12ID : 17Format : UTF-8Codec ID : S_TEXT/UTF8Codec ID/Info : UTF-8 Plain TextDuration : 1 h 48 minBit rate : 63 b/sCount of elements : 1512Stream size : 50.8 KiB (0%)Title : NorwegianLanguage : NorwegianDefault : NoForced : No
Text #13ID : 18Format : UTF-8Codec ID : S_TEXT/UTF8Codec ID/Info : UTF-8 Plain TextDuration : 1 h 48 minBit rate : 75 b/sCount of elements : 1894Stream size : 60.1 KiB (0%)Title : Simplified ChineseLanguage : ChineseDefault : NoForced : No
Menu00:00:00.000 : :Chapter 0100:06:37.397 : :Chapter 0200:12:36.089 : :Chapter 0300:17:05.816 : :Chapter 0400:26:23.165 : :Chapter 0500:33:12.157 : :Chapter 0600:42:03.354 : :Chapter 0700:48:51.971 : :Chapter 0800:56:00.857 : :Chapter 0901:01:40.447 : :Chapter 1001:06:40.288 : :Chapter 1101:11:29.911 : :Chapter 1201:18:06.432 : :Chapter 1301:24:14.967 : :Chapter 1401:27:56.229 : :Chapter 1501:41:39.677 : :Chapter 1601:44:58.417 : :Chapter 17

Скриншоты



[Profile]  [PM] 
Display posts:    
Reply to topic

Current time is: 20-Jul 02:38

All times are UTC + 2



You cannot post new topics in this forum
You cannot reply to topics in this forum
You cannot edit your posts in this forum
You cannot delete your posts in this forum
You cannot vote in polls in this forum
You cannot attach files in this forum
You cannot download files in this forum