Астрал: Потомство / Leave (Алекс Херрон / Alex Herron) [2022, Норвегия, ужасы, триллер, мистика, BDRemux 1080p] Dub (Велес) + Sub Rus, Eng + Original Eng

Reply to topic
 
Author
Message

Faust ®

Gender: Unknown

Longevity: 12 years

Posts: 23187

Reputation: 0 [+] [-]

Faust · Post 08-Jun-2023 17:55

[Quote] 

Астрал: Потомство / Leave
Страна: Норвегия
Студия: Trollbound Entertainment
Жанр: ужасы, триллер, мистика
Год выпуска: 2022
Продолжительность: 01:46:38
Перевод: Профессиональный (дублированный) Велес
Субтитры: русские - полные, английские - Full, SDH
Оригинальная аудиодорожка: английский
Режиссер: Алекс Херрон / Alex Herron
В ролях: Алисия фон Риттберг, Герман Томмераас, Стиг Р. Амдам, Эллен Доррит Петерсен, Мортен Хольст, Грю М. Даль, Кристин Донлон, Алисия М. Эйдесунд, Питер Форде, Рагнхильд Гудбрандсен
Описание: Молодая американка едет в Европу на поиски своих биологических родителей. В младенчестве ее бросили на кладбище, завернув в ткань с сатанинскими символами. По мере того, как она приближается к ответам, кто и откуда ее родители, некий дух все настойчивее предупреждает ее уехать..
Доп. информация:
- Источник: Leave.2022.MULTi.COMPLETE.BLURAY-WDC
- Германское издание I-ON New Media GmbH от 26.05.2023
- Так как на блю-рее только немецкие субтитры, то нашёл в сети английские субтитры с британского блю-рея .
Форсированные английские субтитры на норвежскую речь соединил в один файл с полными и с SDH

Тип релиза: BDRemux 1080p
Контейнер: MKV
Видео: H.264/AVC, 1920x1080, 16:9 (2,720, 49:18 Анаморф), 20 MB/s, 24 fps
Аудио 1: Русский, AC3, 5.1, 48 kHz, 384 kbps / Dub Велес
Аудио 2: Английский, DTS HD MA, 5.1, 48 kHz, 2142 kbps, 16 bits / Original English*
Формат субтитров: softsub (SRT)
Примечание:
* Core: DTS, 5.1, 48 kHz, 1509 kbps

MediaInfo

GeneralUnique ID                      : 278864076404269155793597504965829222859 (0xD1CB447BEF2DABE62F3D4164646C61CB)Complete name                  : K:\Filmade 3\Leave.2022.MULTi.COMPLETE.BLURAY-WDC\Leave.2022.1080p.BDREMUX.AVC-Нечипорук.mkvFormat                         : MatroskaFormat version                 : Version 4File size                      : 16.8 GiBDuration                       : 1 h 46 minOverall bit rate mode          : VariableOverall bit rate               : 22.5 Mb/sMovie name                     : Leave.2022.1080p.BDREMUX.AVC-НечипорукEncoded date                   : UTC 2023-06-05 22:30:44Writing application            : mkvmerge v77.0 ('Elemental') 64-bitWriting library                : libebml v1.4.4 + libmatroska v1.7.1Cover                          : YesAttachments                    : cover.jpg
VideoID : 1Format : AVCFormat/Info : Advanced Video CodecFormat profile : High@L4.1Format settings : CABAC / 4 Ref FramesFormat settings, CABAC : YesFormat settings, Reference fra : 4 framesCodec ID : V_MPEG4/ISO/AVCDuration : 1 h 46 minBit rate mode : VariableBit rate : 20.0 Mb/sMaximum bit rate : 35.0 Mb/sWidth : 1 920 pixelsHeight : 1 080 pixelsDisplay aspect ratio : 16:9Frame rate mode : ConstantFrame rate : 24.000 FPSStandard : ComponentColor space : YUVChroma subsampling : 4:2:0Bit depth : 8 bitsScan type : ProgressiveBits/(Pixel*Frame) : 0.402Stream size : 14.9 GiB (89%)Title : Leave.2022.1080p.BDREMUX.AVC-НечипорукWriting library : x264 core 155Encoding settings : cabac=1 / ref=4 / deblock=1:0:0 / analyse=0x3:0x133 / me=umh / subme=9 / psy=1 / psy_rd=1.00:0.00 / mixed_ref=1 / me_range=16 / chroma_me=1 / trellis=2 / 8x8dct=1 / cqm=1 / deadzone=21,11 / fast_pskip=1 / chroma_qp_offset=-2 / threads=24 / lookahead_threads=2 / sliced_threads=0 / slices=4 / nr=0 / decimate=1 / interlaced=0 / minigop=1 / stitchable=1 / constrained_intra=0 / bframes=3 / b_pyramid=0 / b_adapt=2 / b_bias=0 / direct=3 / weightb=1 / open_gop=1 / weightp=1 / keyint=24 / keyint_min=1 / scenecut=40 / intra_refresh=0 / rc_lookahead=24 / rc=2pass / mbtree=1 / bitrate=20000 / ratetol=1.0 / qcomp=0.60 / qpmin=3 / qpmax=69 / qpstep=4 / cplxblur=20.0 / qblur=0.5 / vbv_maxrate=35000 / vbv_bufsize=30000 / nal_hrd=vbr / filler=0 / ip_ratio=1.40 / aq=1:1.00Language : EnglishDefault : YesForced : NoColor range : LimitedColor primaries : BT.709Transfer characteristics : BT.709Matrix coefficients : BT.709
Audio #1ID : 2Format : AC-3Format/Info : Audio Coding 3Commercial name : Dolby DigitalCodec ID : A_AC3Duration : 1 h 46 minBit rate mode : ConstantBit rate : 384 kb/sChannel(s) : 6 channelsChannel layout : L R C LFE Ls RsSampling rate : 48.0 kHzFrame rate : 31.250 FPS (1536 SPF)Compression mode : LossyStream size : 293 MiB (2%)Title : Дубляж ВелесLanguage : RussianService kind : Complete MainDefault : YesForced : No
Audio #2ID : 3ID in the original source medi : 4353 (0x1101)Format : DTS XLLFormat/Info : Digital Theater SystemsCommercial name : DTS-HD Master AudioCodec ID : A_DTSDuration : 1 h 46 minBit rate mode : VariableBit rate : 2 142 kb/sChannel(s) : 6 channelsChannel layout : C L R Ls Rs LFESampling rate : 48.0 kHzFrame rate : 93.750 FPS (512 SPF)Bit depth : 16 bitsCompression mode : LosslessStream size : 1.60 GiB (10%)Title : OriginalLanguage : EnglishDefault : NoForced : NoOriginal source medium : Blu-ray
Text #1ID : 4Format : UTF-8Codec ID : S_TEXT/UTF8Codec ID/Info : UTF-8 Plain TextDuration : 1 h 41 minBit rate : 47 b/sFrame rate : 0.143 FPSCount of elements : 868Stream size : 35.2 KiB (0%)Title : ПолныеLanguage : RussianDefault : NoForced : No
Text #2ID : 5Format : UTF-8Codec ID : S_TEXT/UTF8Codec ID/Info : UTF-8 Plain TextDuration : 1 h 41 minBit rate : 30 b/sFrame rate : 0.142 FPSCount of elements : 862Stream size : 22.5 KiB (0%)Title : FullLanguage : EnglishDefault : NoForced : No
Text #3ID : 6Format : UTF-8Codec ID : S_TEXT/UTF8Codec ID/Info : UTF-8 Plain TextDuration : 1 h 44 minBit rate : 35 b/sFrame rate : 0.168 FPSCount of elements : 1054Stream size : 26.8 KiB (0%)Title : Full SDHLanguage : EnglishDefault : NoForced : No
Menu00:00:00.000 : en:Глава 0100:11:53.875 : en:Глава 0200:28:19.750 : en:Глава 0300:36:53.166 : en:Глава 0400:52:16.666 : en:Глава 0501:01:55.541 : en:Глава 0601:14:24.791 : en:Глава 0701:27:07.708 : en:Глава 08
[Profile]  [PM] 
Display posts:    
Reply to topic

Current time is: 20-Jul 02:38

All times are UTC + 2



You cannot post new topics in this forum
You cannot reply to topics in this forum
You cannot edit your posts in this forum
You cannot delete your posts in this forum
You cannot vote in polls in this forum
You cannot attach files in this forum
You cannot download files in this forum