Черная смерть / Black Death (Кристофер Смит / Christopher Smith) [2010, Германия, Великобритания, детектив, триллер, драма, BDRemux 1080p] Dub + 2x MVO + VO (Строев) + MVO Ukr + Original Eng + Sub (Rus, Eng)

Reply to topic
 
Author
Message

Faust ®

Gender: Unknown

Longevity: 12 years

Posts: 23187

Reputation: 0 [+] [-]

Faust · Post 08-Jun-2023 17:55

[Quote] 

Черная смерть / Black Death
Год выпуска: 2010
Страна: Германия, Великобритания
Жанр: детектив, триллер, драма
Продолжительность: 01:41:28
Перевод 1: Профессиональный (дублированный) Кинопоиск
Перевод 2: Профессиональный (многоголосый закадровый) Blu-ray RUS
Перевод 3: Профессиональный (многоголосый закадровый) Россия
Перевод 4: Одноголосый закадровый Д. Строев
Перевод 5: Профессиональный (многоголосый закадровый) 1+1 - украинский
Оригинальная аудиодорожка: английский
Cубтитры: русские (full), английские (full, SDH)

Режиссер:
Кристофер Смит / Christopher Smith
В ролях: Шон Бин, Эдди Редмэйн, Кэрис ван Хаутен, Джон Линч, Тим МакИннерни, Кимберли Никсон, Энди Найман, Дэвид Уорнер, Джонни Харрис, Иман Эллиотт
Описание: Средневековая Англия попала под тень Черной смерти. В этом апокалиптическом мире, заполненном страхом и суеверием, собираются несколько монахов, объединенных одной целью — выследить того, кто способен возвращать к жизни умерших от чумы.-imdb | kinopoisk | Сэмпл-Исходная BDRemux от lev31071977.
Спасибо SOFCJ за дубляж с Кинопоиска. Остальные дорожки отсюда.
-Качество: BDRemux 1080p
Формат видео: MKV
Видео: 1920x1080p, 24 fps, AVC, ~30.9 Mbps
Аудио Rus: AC-3 / 2.0 / 48 kHz / 192 kbps Дубляж
Аудио Rus: DTS / 5.1 / 48 kHz / 1509 kbps Blu-ray RUS
Аудио Rus: AC-3 / 2.0 / 48 kHz / 192 kbps Россия
Аудио Rus: AC-3 / 5.1 / 48 kHz / 448 kbps Д. Строев
Аудио Ukr: AC-3 / 2.0 / 48 kHz / 192 kbps 1+1
Аудио Eng: DTS / 5.1 / 48 kHz / 1509 kbps Оригинал
Аудио Eng: AC-3 / 2.0 / 48 kHz / 224 kbps Комментарии режиссера
Формат субтитров: softsub (SRT)

MediaInfo

GeneralComplete name                  : Black.Death.BDRemux.1080p.mkvFormat                         : MatroskaFormat version                 : Version 4File size                      : 24.9 GiBDuration                       : 1 h 41 minOverall bit rate mode          : VariableOverall bit rate               : 35.1 Mb/sFrame rate                     : 24.000 FPSEncoded date                   : 2023-05-31 18:41:23 UTCWriting application            : mkvmerge v73.0.0 ('25 or 6 to 4') 64-bitWriting library                : libebml v1.4.4 + libmatroska v1.7.1Cover                          : YesAttachments                    : cover.jpg
VideoID : 1Format : AVCFormat/Info : Advanced Video CodecFormat profile : High@L4.1Format settings : CABAC / 4 Ref FramesFormat settings, CABAC : YesFormat settings, Reference fra : 4 framesCodec ID : V_MPEG4/ISO/AVCDuration : 1 h 41 minBit rate mode : VariableBit rate : 30.9 Mb/sMaximum bit rate : 33.0 Mb/sWidth : 1 920 pixelsHeight : 1 080 pixelsDisplay aspect ratio : 16:9Frame rate mode : ConstantFrame rate : 24.000 FPSColor space : YUVChroma subsampling : 4:2:0Bit depth : 8 bitsScan type : ProgressiveBits/(Pixel*Frame) : 0.620Stream size : 21.9 GiB (88%)Language : EnglishDefault : YesForced : NoColor range : LimitedColor primaries : BT.709Transfer characteristics : BT.709Matrix coefficients : BT.709
Audio #1ID : 2Format : AC-3Format/Info : Audio Coding 3Commercial name : Dolby DigitalCodec ID : A_AC3Duration : 1 h 41 minBit rate mode : ConstantBit rate : 192 kb/sChannel(s) : 2 channelsChannel layout : L RSampling rate : 48.0 kHzFrame rate : 31.250 FPS (1536 SPF)Compression mode : LossyStream size : 139 MiB (1%)Title : DubLanguage : RussianService kind : Complete MainDefault : YesForced : No
Audio #2ID : 3Format : DTSFormat/Info : Digital Theater SystemsCodec ID : A_DTSDuration : 1 h 41 minBit rate mode : ConstantBit rate : 1 509 kb/sChannel(s) : 6 channelsChannel layout : C L R Ls Rs LFESampling rate : 48.0 kHzFrame rate : 93.750 FPS (512 SPF)Bit depth : 16 bitsCompression mode : LossyStream size : 1.07 GiB (4%)Title : MVO Blu-rayLanguage : RussianDefault : NoForced : No
Audio #3ID : 4Format : AC-3Format/Info : Audio Coding 3Commercial name : Dolby DigitalCodec ID : A_AC3Duration : 1 h 41 minBit rate mode : ConstantBit rate : 192 kb/sChannel(s) : 2 channelsChannel layout : L RSampling rate : 48.0 kHzFrame rate : 31.250 FPS (1536 SPF)Compression mode : LossyStream size : 139 MiB (1%)Title : MVO РоссияLanguage : RussianService kind : Complete MainDefault : NoForced : No
Audio #4ID : 5Format : AC-3Format/Info : Audio Coding 3Commercial name : Dolby DigitalCodec ID : A_AC3Duration : 1 h 41 minBit rate mode : ConstantBit rate : 448 kb/sChannel(s) : 6 channelsChannel layout : L R C LFE Ls RsSampling rate : 48.0 kHzFrame rate : 31.250 FPS (1536 SPF)Compression mode : LossyStream size : 325 MiB (1%)Title : VO СтроевLanguage : RussianService kind : Complete MainDefault : NoForced : No
Audio #5ID : 6Format : AC-3Format/Info : Audio Coding 3Commercial name : Dolby DigitalCodec ID : A_AC3Duration : 1 h 41 minBit rate mode : ConstantBit rate : 192 kb/sChannel(s) : 2 channelsChannel layout : L RSampling rate : 48.0 kHzFrame rate : 31.250 FPS (1536 SPF)Compression mode : LossyStream size : 139 MiB (1%)Title : MVO 1+1Language : UkrainianService kind : Complete MainDefault : NoForced : No
Audio #6ID : 7Format : DTSFormat/Info : Digital Theater SystemsCodec ID : A_DTSDuration : 1 h 41 minBit rate mode : ConstantBit rate : 1 509 kb/sChannel(s) : 6 channelsChannel layout : C L R Ls Rs LFESampling rate : 48.0 kHzFrame rate : 93.750 FPS (512 SPF)Bit depth : 16 bitsCompression mode : LossyStream size : 1.07 GiB (4%)Title : OriginalLanguage : EnglishDefault : NoForced : No
Audio #7ID : 8Format : AC-3Format/Info : Audio Coding 3Commercial name : Dolby DigitalCodec ID : A_AC3Duration : 1 h 41 minBit rate mode : ConstantBit rate : 224 kb/sChannel(s) : 2 channelsChannel layout : L RSampling rate : 48.0 kHzFrame rate : 31.250 FPS (1536 SPF)Compression mode : LossyStream size : 163 MiB (1%)Title : Commentary with director Christopher SmithLanguage : EnglishService kind : Complete MainDefault : NoForced : No
Text #1ID : 9Format : UTF-8Codec ID : S_TEXT/UTF8Codec ID/Info : UTF-8 Plain TextDuration : 1 h 36 minBit rate : 43 b/sFrame rate : 0.112 FPSCount of elements : 652Stream size : 30.9 KiB (0%)Title : FullLanguage : RussianDefault : NoForced : No
Text #2ID : 10Format : UTF-8Codec ID : S_TEXT/UTF8Codec ID/Info : UTF-8 Plain TextDuration : 1 h 34 minBit rate : 30 b/sFrame rate : 0.116 FPSCount of elements : 656Stream size : 20.8 KiB (0%)Title : FullLanguage : EnglishDefault : NoForced : No
Text #3ID : 11Format : UTF-8Codec ID : S_TEXT/UTF8Codec ID/Info : UTF-8 Plain TextDuration : 1 h 34 minBit rate : 31 b/sFrame rate : 0.127 FPSCount of elements : 720Stream size : 22.1 KiB (0%)Title : SDHLanguage : EnglishDefault : NoForced : No
Menu00:00:00.000 : en:100:08:58.458 : en:200:23:49.125 : en:300:32:59.083 : en:400:40:50.958 : en:500:48:48.083 : en:600:56:02.458 : en:701:04:46.416 : en:801:13:34.541 : en:901:18:15.791 : en:1001:24:53.666 : en:1101:35:10.375 : en:12

Скриншоты


[Profile]  [PM] 
Display posts:    
Reply to topic

Current time is: 20-Jul 02:37

All times are UTC + 2



You cannot post new topics in this forum
You cannot reply to topics in this forum
You cannot edit your posts in this forum
You cannot delete your posts in this forum
You cannot vote in polls in this forum
You cannot attach files in this forum
You cannot download files in this forum