Ингрид едет на Запад / Ingrid Goes West (Мэтт Спайсер / Matt Spicer) [2017, США, драма, комедия, BDRemux 1080p] Dub (Netflix) + Original Eng + Sub (Rus, Ukr, Eng)

Reply to topic
 
Author
Message

Faust ®

Gender: Unknown

Longevity: 12 years

Posts: 23187

Reputation: 0 [+] [-]

Faust · Post 08-Jun-2023 17:55

[Quote] 

Ингрид едет на Запад / Ingrid Goes West
Год выпуска: 2017
Страна: США
Жанр: драма, комедия
Продолжительность: 01:38:00
Перевод: Профессиональный (дублированный) Пифагор / Netflix
Оригинальная аудиодорожка: английский
Cубтитры: русские (full), украинские (full), английские (full)

Режиссер:
Мэтт Спайсер / Matt Spicer
В ролях: Обри Плаза, Элизабет Олсен, О'Шей Джексон-мл., Уайатт Рассел, Билли Магнуссен, Пом Клементьефф, Ханна Перл Атт, Джозеф Брин, Анжелика Амор, Мередит Хагнер, Чарли Райт, Деннис Атлас, Малика Уильямс, Луис Девезе, Джей Спиди Вайнгартен
Описание: Психически неуравновешенная девушка Ингрид маниакально следит за звездой соцсетей Тейлор Слоун, восхищаясь ее «идеальной», выставленной напоказ жизнью. Ингрид едет в Лос-Анджелес, чтобы быть ближе к своему кумиру, и девушки даже становятся подругами.-imdb | kinopoisk | Сэмпл-Спасибо Marchelush и TeamHD за исходник.-Качество: BDRemux 1080p
Формат видео: MKV
Видео: 1920x1080p, 23.976 fps, AVC, ~20.8 Mbps
Аудио Rus: E-AC-3 / 5.1 / 48 kHz / 640 kbps Дубляж
Аудио Eng: DTS-HD Master Audio 5.1 / 48 kHz / 24 bit / ~3484 kbps (DTS Core: 5.1 / 48 kHz / 1509 kbps / 24-bit) Оригинал
Формат субтитров: softsub (SRT)

MediaInfo

GeneralComplete name                  : Ingrid.Goes.West.BDRemux.1080p.mkvFormat                         : MatroskaFormat version                 : Version 4File size                      : 17.0 GiBDuration                       : 1 h 38 minOverall bit rate mode          : VariableOverall bit rate               : 24.8 Mb/sFrame rate                     : 23.976 FPSEncoded date                   : 2023-05-30 17:03:32 UTCWriting application            : mkvmerge v73.0.0 ('25 or 6 to 4') 64-bitWriting library                : libebml v1.4.4 + libmatroska v1.7.1Cover                          : YesAttachments                    : cover.jpg
VideoID : 1Format : AVCFormat/Info : Advanced Video CodecFormat profile : High@L4.1Format settings : CABAC / 4 Ref FramesFormat settings, CABAC : YesFormat settings, Reference fra : 4 framesCodec ID : V_MPEG4/ISO/AVCDuration : 1 h 37 minBit rate mode : VariableBit rate : 20.8 Mb/sMaximum bit rate : 36.0 Mb/sWidth : 1 920 pixelsHeight : 1 080 pixelsDisplay aspect ratio : 16:9Frame rate mode : ConstantFrame rate : 23.976 (24000/1001) FPSColor space : YUVChroma subsampling : 4:2:0Bit depth : 8 bitsScan type : ProgressiveBits/(Pixel*Frame) : 0.418Stream size : 14.2 GiB (83%)Language : EnglishDefault : YesForced : No
Audio #1ID : 2Format : E-AC-3Format/Info : Enhanced AC-3Commercial name : Dolby Digital PlusCodec ID : A_EAC3Duration : 1 h 38 minBit rate mode : ConstantBit rate : 640 kb/sChannel(s) : 6 channelsChannel layout : L R C LFE Ls RsSampling rate : 48.0 kHzFrame rate : 31.250 FPS (1536 SPF)Compression mode : LossyStream size : 449 MiB (3%)Title : ДубляжLanguage : RussianService kind : Complete MainDefault : YesForced : No
Audio #2ID : 3Format : DTS XLLFormat/Info : Digital Theater SystemsCommercial name : DTS-HD Master AudioCodec ID : A_DTSDuration : 1 h 37 minBit rate mode : VariableBit rate : 3 484 kb/sChannel(s) : 6 channelsChannel layout : C L R Ls Rs LFESampling rate : 48.0 kHzFrame rate : 93.750 FPS (512 SPF)Bit depth : 24 bitsCompression mode : LosslessStream size : 2.38 GiB (14%)Title : ОригиналLanguage : EnglishDefault : NoForced : No
Text #1ID : 4Format : UTF-8Codec ID : S_TEXT/UTF8Codec ID/Info : UTF-8 Plain TextDuration : 1 h 37 minBit rate : 101 b/sFrame rate : 0.244 FPSCount of elements : 1422Stream size : 72.5 KiB (0%)Language : RussianDefault : NoForced : No
Text #2ID : 5Format : UTF-8Codec ID : S_TEXT/UTF8Codec ID/Info : UTF-8 Plain TextDuration : 1 h 37 minBit rate : 99 b/sFrame rate : 0.243 FPSCount of elements : 1421Stream size : 71.2 KiB (0%)Language : UkrainianDefault : NoForced : No
Text #3ID : 6Format : UTF-8Codec ID : S_TEXT/UTF8Codec ID/Info : UTF-8 Plain TextDuration : 1 h 32 minBit rate : 72 b/sFrame rate : 0.260 FPSCount of elements : 1438Stream size : 48.9 KiB (0%)Language : EnglishDefault : NoForced : No
Menu00:00:00.000 : en:Chapter 0000:13:03.324 : en:Chapter 0100:22:55.916 : en:Chapter 0200:32:29.781 : en:Chapter 0300:42:07.107 : en:Chapter 0400:53:04.181 : en:Chapter 0501:03:17.752 : en:Chapter 0601:13:17.226 : en:Chapter 0701:22:27.692 : en:Chapter 0801:32:53.526 : en:Chapter 09

Скриншоты


[Profile]  [PM] 
Display posts:    
Reply to topic

Current time is: 20-Jul 02:37

All times are UTC + 2



You cannot post new topics in this forum
You cannot reply to topics in this forum
You cannot edit your posts in this forum
You cannot delete your posts in this forum
You cannot vote in polls in this forum
You cannot attach files in this forum
You cannot download files in this forum