Возвращение в Сеул / Retour à Séoul / Return to Seoul (Дэви Шу / Davy Chou) [2022, Франция, Германия, Бельгия, Южная Корея, Румыния, Камбоджа, Катар, Драма, BDRemux 1080p] MVO (OKKO) + Original (Fra) + Sub (rus, eng, fra)

Reply to topic
 
Author
Message

Faust ®

Gender: Unknown

Longevity: 12 years

Posts: 23187

Reputation: 0 [+] [-]

Faust · Post 08-Jun-2023 17:55

[Quote] 

Возвращение в Сеул / Retour à Séoul / Return to Seoul
Страна: Франция, Германия, Бельгия, Корея Южная, Румыния, Камбоджа, Катар
Жанр: Драма
Год выпуска: 2022
Продолжительность: 01:59:23-Перевод: Профессиональный (многоголосый закадровый) | OKKO
Cубтитры: Русские (Forced), Английские (Full, SDH), Французские (Forced, Full)
Оригинальная аудиодорожка: Французский-Режиссёр: Дэви Шу / Davy Chou
В ролях: Пак Чи-мин, О Гван-нок, Guka Han, Ким Сон-ён, Йоанн Циммер, Луи-До де Ланкесэ, Хо Джин, Hur Ouk-Sook, Son Seung-Beom, Dong Seok Kim
Описание: Фредди — 25-летняя кореянка, которая выросла в приёмной семье во Франции. Поддавшись порыву, она впервые возвращается на родину, чтобы найти биологических родителей. Её путешествие разворачивается в новом и неожиданном направлении.- -Тип релиза: BDRemux 1080p
Контейнер: MKV-Видео: AVC/H.264, 1920x1080, 26500 Mbps, 23.976 fps
Аудио 1: Русский | E-AC-3, 6 ch, 384 Kbps, 48.0 kHz
Аудио 2: Французский | DTS-HD MA, 6 ch, 3199 Kbps, 48.0 kHz, 24-bit (DTS Core: 5.1 / 48 kHz / 1509 kbps / 24-bit)
Формат субтитров: softsub (SRT)-

MediaInfo

General
Unique ID                                : 40475565553517865290592355095287913088 (0x1E734F748295226CB3EA546F826F5A80)
Complete name                            : /Volumes/Promise Pegasus/Return.to.Seoul.2022.BDRemux.1080p.mkv
Format                                   : Matroska
Format version                           : Version 4
File size                                : 25.1 GiB
Duration                                 : 1 h 59 min
Overall bit rate mode                    : Variable
Overall bit rate                         : 30.1 Mb/s
Frame rate                               : 23.976 FPS
Movie name                               : Return to Seoul 2022 BDRemux 1080p
Encoded date                             : 2023-05-29 22:00:19 UTC
Writing application                      : mkvmerge v73.0.0 ('25 or 6 to 4') 64-bit
Writing library                          : libebml v1.4.4 + libmatroska v1.7.1
Video
ID                                       : 1
Format                                   : AVC
Format/Info                              : Advanced Video Codec
Format profile                           : High@L4.1
Format settings                          : CABAC / 4 Ref Frames
Format settings, CABAC                   : Yes
Format settings, Reference frames        : 4 frames
Codec ID                                 : V_MPEG4/ISO/AVC
Duration                                 : 1 h 59 min
Bit rate mode                            : Variable
Bit rate                                 : 26.5 Mb/s
Maximum bit rate                         : 35.6 Mb/s
Width                                    : 1 920 pixels
Height                                   : 1 080 pixels
Display aspect ratio                     : 16:9
Frame rate mode                          : Constant
Frame rate                               : 23.976 (24000/1001) FPS
Color space                              : YUV
Chroma subsampling                       : 4:2:0
Bit depth                                : 8 bits
Scan type                                : Progressive
Bits/(Pixel*Frame)                       : 0.533
Stream size                              : 22.1 GiB (88%)
Language                                 : English
Default                                  : Yes
Forced                                   : No
Audio #1
ID                                       : 2
Format                                   : E-AC-3
Format/Info                              : Enhanced AC-3
Commercial name                          : Dolby Digital Plus
Codec ID                                 : A_EAC3
Duration                                 : 1 h 59 min
Bit rate mode                            : Constant
Bit rate                                 : 384 kb/s
Channel(s)                               : 6 channels
Channel layout                           : L R C LFE Ls Rs
Sampling rate                            : 48.0 kHz
Frame rate                               : 31.250 FPS (1536 SPF)
Compression mode                         : Lossy
Stream size                              : 328 MiB (1%)
Title                                    : Russian MVO OKKO
Language                                 : Russian
Service kind                             : Complete Main
Default                                  : Yes
Forced                                   : No
Audio #2
ID                                       : 3
Format                                   : DTS XLL
Format/Info                              : Digital Theater Systems
Commercial name                          : DTS-HD Master Audio
Codec ID                                 : A_DTS
Duration                                 : 1 h 59 min
Bit rate mode                            : Variable
Bit rate                                 : 3 199 kb/s
Channel(s)                               : 6 channels
Channel layout                           : C L R Ls Rs LFE
Sampling rate                            : 48.0 kHz
Frame rate                               : 93.750 FPS (512 SPF)
Bit depth                                : 24 bits
Compression mode                         : Lossless
Stream size                              : 2.67 GiB (11%)
Title                                    : French Original
Language                                 : French
Default                                  : No
Forced                                   : No
Text #1
ID                                       : 4
Format                                   : UTF-8
Codec ID                                 : S_TEXT/UTF8
Codec ID/Info                            : UTF-8 Plain Text
Duration                                 : 1 h 43 min
Bit rate                                 : 23 b/s
Frame rate                               : 0.043 FPS
Count of elements                        : 266
Stream size                              : 17.9 KiB (0%)
Title                                    : Russian forced
Language                                 : Russian
Default                                  : Yes
Forced                                   : No
Text #2
ID                                       : 5
Format                                   : UTF-8
Codec ID                                 : S_TEXT/UTF8
Codec ID/Info                            : UTF-8 Plain Text
Duration                                 : 1 h 54 min
Bit rate                                 : 29 b/s
Frame rate                               : 0.136 FPS
Count of elements                        : 939
Stream size                              : 25.2 KiB (0%)
Title                                    : English full
Language                                 : English
Default                                  : No
Forced                                   : No
Text #3
ID                                       : 6
Format                                   : UTF-8
Codec ID                                 : S_TEXT/UTF8
Codec ID/Info                            : UTF-8 Plain Text
Duration                                 : 1 h 58 min
Bit rate                                 : 37 b/s
Frame rate                               : 0.152 FPS
Count of elements                        : 1086
Stream size                              : 32.3 KiB (0%)
Title                                    : English SDH
Language                                 : English
Default                                  : No
Forced                                   : No
Text #4
ID                                       : 7
Format                                   : UTF-8
Codec ID                                 : S_TEXT/UTF8
Codec ID/Info                            : UTF-8 Plain Text
Duration                                 : 1 h 37 min
Bit rate                                 : 1 b/s
Frame rate                               : 0.005 FPS
Count of elements                        : 29
Stream size                              : 1.03 KiB (0%)
Title                                    : French forced
Language                                 : French
Default                                  : No
Forced                                   : No
Text #5
ID                                       : 8
Format                                   : UTF-8
Codec ID                                 : S_TEXT/UTF8
Codec ID/Info                            : UTF-8 Plain Text
Duration                                 : 1 h 50 min
Bit rate                                 : 36 b/s
Frame rate                               : 0.141 FPS
Count of elements                        : 932
Stream size                              : 29.6 KiB (0%)
Title                                    : Fench full
Language                                 : French
Default                                  : No
Forced                                   : No
Menu
00:00:00.000                             : fr:Chapitre 01
00:08:58.496                             : fr:Chapitre 02
00:13:06.952                             : fr:Chapitre 03
00:20:36.276                             : fr:Chapitre 04
00:28:39.676                             : fr:Chapitre 05
00:35:42.265                             : fr:Chapitre 06
00:39:59.647                             : fr:Chapitre 07
00:46:56.855                             : fr:Chapitre 08
00:53:43.011                             : fr:Chapitre 09
01:00:31.294                             : fr:Chapitre 10
01:09:08.144                             : fr:Chapitre 11
01:18:18.985                             : fr:Chapitre 12
01:24:39.699                             : fr:Chapitre 13
01:32:13.027                             : fr:Chapitre 14
01:40:17.177                             : fr:Chapitre 15
01:47:48.962                             : fr:Chapitre 16
01:54:49.257                             : fr:Chapitre 17

Скриншоты

[Profile]  [PM] 
Display posts:    
Reply to topic

Current time is: 20-Jul 03:43

All times are UTC + 2



You cannot post new topics in this forum
You cannot reply to topics in this forum
You cannot edit your posts in this forum
You cannot delete your posts in this forum
You cannot vote in polls in this forum
You cannot attach files in this forum
You cannot download files in this forum