Одержимость. Проклятие Лиззи Борден / The Inhabitant (Джеррен Лаудер / Jerren Lauder) [2022, США, Ужасы, BDRemux 1080p] Dub (Akimbo Production) + Original (Eng) + Sub (eng)

Reply to topic
 
Author
Message

Faust ®

Gender: Unknown

Longevity: 12 years

Posts: 23187

Reputation: 0 [+] [-]

Faust · Post 08-Jun-2023 17:55

[Quote] 

Одержимость. Проклятие Лиззи Борден / The Inhabitant
A Lizzie Borden Story
Страна: США
Жанр: Ужасы
Год выпуска: 2022
Продолжительность: 01:37:32-Перевод: Профессиональный (дублированный) | Akimbo Production
Cубтитры: Английские (Full)
Оригинальная аудиодорожка: Английский-Режиссёр: Джеррен Лаудер / Jerren Lauder
В ролях: Одесса Эзайон, Лесли Бибб, Дермот Малруни, Лиззи Бродвей, Майкл Купер, Мэри Басс, Джексон Дин Винсент, Кеннейша Томпсон, Райан Френсис, Тодд Дженкинс, Хартли Бувик
Описание: В конце XIX века Лиззи Борден зарубила отца и мачеху, была оправдана и прожила остаток жизни в Фолл-Ривер. С тех пор в городке ходит легенда, что девушка была одержима, когда взялась за топор, и теперь нечто может вселяться в её потомков, сводя с ума и вынуждая убивать. Старшеклассница Тара не особо верит в эти россказни, хотя её родная тетя пожизненно заперта в психушке за убийство собственного ребёнка, когда вдруг пугающие видения начинают одолевать её саму. В это же время в городке происходят загадочные исчезновения знакомых Тары.- -Тип релиза: BDRemux 1080p
Контейнер: MKV-Видео: AVC/H.264, 1920x1080, 27000 Kbps, 23.976 fps
Аудио 1: Русский | AC-3, 6 ch, 384 Kbps, 48.0 kHz
Аудио 2: Английский | DTS-HD MA, 6 ch, 3972 Kbps, 48.0 kHz, 24-bit (DTS Core: 5.1 / 48 kHz / 1509 kbps / 24-bit)
Формат субтитров: softsub (SRT)-

MediaInfo

General
Unique ID                                : 325126687554874243040581567865231743066 (0xF4991F50E591B74BACD200BC576B985A)
Complete name                            : /Volumes/Promise Pegasus/The.Inhabitant.2022.BDRemux.1080p.mkv
Format                                   : Matroska
Format version                           : Version 4
File size                                : 21.4 GiB
Duration                                 : 1 h 37 min
Overall bit rate mode                    : Variable
Overall bit rate                         : 31.3 Mb/s
Frame rate                               : 23.976 FPS
Movie name                               : The Inhabitant 2022 BDRemux 1080p
Encoded date                             : 2023-05-29 15:30:37 UTC
Writing application                      : mkvmerge v73.0.0 ('25 or 6 to 4') 64-bit
Writing library                          : libebml v1.4.4 + libmatroska v1.7.1
Video
ID                                       : 1
Format                                   : AVC
Format/Info                              : Advanced Video Codec
Format profile                           : High@L4.1
Format settings                          : CABAC / 4 Ref Frames
Format settings, CABAC                   : Yes
Format settings, Reference frames        : 4 frames
Codec ID                                 : V_MPEG4/ISO/AVC
Duration                                 : 1 h 37 min
Bit rate mode                            : Variable
Bit rate                                 : 27.0 Mb/s
Maximum bit rate                         : 35.0 Mb/s
Width                                    : 1 920 pixels
Height                                   : 1 080 pixels
Display aspect ratio                     : 16:9
Frame rate mode                          : Constant
Frame rate                               : 23.976 (24000/1001) FPS
Standard                                 : NTSC
Color space                              : YUV
Chroma subsampling                       : 4:2:0
Bit depth                                : 8 bits
Scan type                                : Progressive
Bits/(Pixel*Frame)                       : 0.543
Stream size                              : 18.4 GiB (86%)
Language                                 : English
Default                                  : Yes
Forced                                   : No
Color range                              : Limited
Color primaries                          : BT.709
Transfer characteristics                 : BT.709
Matrix coefficients                      : BT.709
Audio #1
ID                                       : 2
Format                                   : AC-3
Format/Info                              : Audio Coding 3
Commercial name                          : Dolby Digital
Codec ID                                 : A_AC3
Duration                                 : 1 h 37 min
Bit rate mode                            : Constant
Bit rate                                 : 384 kb/s
Channel(s)                               : 6 channels
Channel layout                           : L R C LFE Ls Rs
Sampling rate                            : 48.0 kHz
Frame rate                               : 31.250 FPS (1536 SPF)
Compression mode                         : Lossy
Stream size                              : 268 MiB (1%)
Title                                    : Russian Dub Akimbo Production
Language                                 : Russian
Service kind                             : Complete Main
Default                                  : Yes
Forced                                   : No
Audio #2
ID                                       : 3
Format                                   : DTS XLL
Format/Info                              : Digital Theater Systems
Commercial name                          : DTS-HD Master Audio
Codec ID                                 : A_DTS
Duration                                 : 1 h 37 min
Bit rate mode                            : Variable
Bit rate                                 : 3 972 kb/s
Channel(s)                               : 6 channels
Channel layout                           : C L R Ls Rs LFE
Sampling rate                            : 48.0 kHz
Frame rate                               : 93.750 FPS (512 SPF)
Bit depth                                : 24 bits
Compression mode                         : Lossless
Stream size                              : 2.71 GiB (13%)
Title                                    : English Original
Language                                 : English
Default                                  : No
Forced                                   : No
Text
ID                                       : 4
Format                                   : UTF-8
Codec ID                                 : S_TEXT/UTF8
Codec ID/Info                            : UTF-8 Plain Text
Duration                                 : 1 h 30 min
Bit rate                                 : 42 b/s
Frame rate                               : 0.189 FPS
Count of elements                        : 1027
Stream size                              : 28.2 KiB (0%)
Title                                    : English full
Language                                 : English
Default                                  : No
Forced                                   : No
Menu
00:00:00.000                             : en:Chapter 01
00:06:56.791                             : en:Chapter 02
00:12:48.934                             : en:Chapter 03
00:23:46.174                             : en:Chapter 04
00:33:04.941                             : en:Chapter 05
00:40:32.221                             : en:Chapter 06
00:51:30.712                             : en:Chapter 07
01:01:40.488                             : en:Chapter 08
01:10:46.825                             : en:Chapter 09
01:17:17.966                             : en:Chapter 10
01:24:53.713                             : en:Chapter 11
01:33:10.918                             : en:Chapter 12

Скриншоты

[Profile]  [PM] 
Display posts:    
Reply to topic

Current time is: 20-Jul 03:42

All times are UTC + 2



You cannot post new topics in this forum
You cannot reply to topics in this forum
You cannot edit your posts in this forum
You cannot delete your posts in this forum
You cannot vote in polls in this forum
You cannot attach files in this forum
You cannot download files in this forum