Клевый парень / Bowfinger (Фрэнк Оз / Frank Oz) [1999, США, комедия, BDRip] Dub (Ист-Вест)

Reply to topic
 
Author
Message

Satyr ®

Gender: Unknown

Longevity: 15 years

Posts: 22031

Reputation: 56 [+] [-]

Satyr · Post 08-Jun-2023 22:00

[Quote] 

Клевый парень / Bowfinger
Страна: США
Жанр: комедия
Год выпуска: 1999
Продолжительность: 01:36:49
Перевод: Профессиональный (дублированный) Ист-Вест
Субтитры: нет
Режиссер: Фрэнк Оз / Frank Oz
В ролях: Стив Мартин, Эдди Мёрфи, Хезер Грэм, Кристин Барански, Джэми Кеннеди, Адам Алекси-Малл, Кол Саддаф, Бэрри Ньюман, Теренс Стэмп, Роберт Дауни мл., Альфред Де Контрерас, Рамиро Фабиан, Джонни Санчез, Клод Брукс, Джон Проски
Описание: Бобби Боуфингер - клевый парень! Не беда, что он абсолютно бестолковый режиссер и самый большой проходимец в Голливуде. Бобби задумал снять настоящий боевик. И не просто боевик, а блокбастер, который принесет огромную кассу и немеркнущую славу. Что же для этого потребуется? Во-первых, - хороший сценарий! Сценарий у Бобби есть. И какой!
В нем зловещие инопланетные твари опускаются на Землю в дождевых каплях и набрасываются на людей. Во-вторых, - заполучить в свой фильм суперзвезду! Причем самого Кита Рэмзи - настоящего героя «боевиков». Тогда, чтобы увидеть кумира в фильме Бобби, в кинотеатры ринутся легионы одержимых поклонников, размахивая толстыми кошельками. А потом можно преспокойно почивать на лаврах и раздавать автографы.
Есть лишь одна маленькая проблема: Кит Рэмзи сниматься у Бобби не собирается. И тогда «непотопляемый» Боуфингер находит выход. Он будет снимать Кита Рэмзи «скрытой» камерой, создавая ситуации, соответствующие сценарию.

Качество видео: BDRip
Формат видео: AVI
Видео: XviD, 1962 Кбит/с, 704x384, 23.976 кадр/с
Аудио: 48 kHz, AC3, 2/0 (L,R) ch, ~192 kbps avg

MediaInfo

GeneralComplete name                  : D:\фильмы\Bowfinger.1999.BDRip.Rutracker.Райдэн.aviFormat                         : AVIFormat/Info                    : Audio Video InterleaveFile size                      : 1.46 GiBDuration                       : 1h 36mnOverall bit rate               : 2 164 KbpsWriting application            : VirtualDubMod 1.5.10.3 | www.virtualdub-fr.org || (build 2550/release)Writing library                : VirtualDubMod build 2550/release
VideoID : 0Format : MPEG-4 VisualFormat profile : Advanced Simple@L5Format settings, BVOP : 1Format settings, QPel : NoFormat settings, GMC : No warppointsFormat settings, Matrix : CustomCodec ID : XVIDCodec ID/Hint : XviDDuration : 1h 36mnBit rate : 1 962 KbpsWidth : 704 pixelsHeight : 384 pixelsDisplay aspect ratio : 1.85:1Frame rate : 23.976 fpsColor space : YUVChroma subsampling : 4:2:0Bit depth : 8 bitsScan type : ProgressiveCompression mode : LossyBits/(Pixel*Frame) : 0.303Stream size : 1.33 GiB (91%)Writing library : XviD 73
AudioID : 1Format : AC-3Format/Info : Audio Coding 3Mode extension : CM (complete main)Format settings, Endianness : BigCodec ID : 2000Duration : 1h 36mnBit rate mode : ConstantBit rate : 192 KbpsChannel(s) : 2 channelsChannel positions : Front: L RSampling rate : 48.0 KHzBit depth : 16 bitsCompression mode : LossyStream size : 133 MiB (9%)Alignment : Split accross interleavesInterleave, duration : 42 ms (1.00 video frame)Interleave, preload duration : 500 ms

Скриншоты

[Profile]  [PM] 
Display posts:    
Reply to topic

Current time is: 20-Jul 03:41

All times are UTC + 2



You cannot post new topics in this forum
You cannot reply to topics in this forum
You cannot edit your posts in this forum
You cannot delete your posts in this forum
You cannot vote in polls in this forum
You cannot attach files in this forum
You cannot download files in this forum