Белый дворец / White Palace (Луис Мандоки / Luis Mandoki) [1990, США, драма, мелодрама, HDRip] AVO (Сергей Визгунов)

Reply to topic
 
Author
Message

Satyr ®

Gender: Unknown

Longevity: 15 years

Posts: 22031

Reputation: 56 [+] [-]

Satyr · Post 08-Jun-2023 22:00

[Quote] 

Белый дворец / White Palace
Страна: США
Жанр: драма, мелодрама
Год выпуска: 1990
Продолжительность: 01:42:53
Перевод: Авторский (одноголосый закадровый) Сергей Визгунов
Субтитры: нет
Режиссер: Луис Мандоки / Luis Mandoki
В ролях: Сьюзен Сарандон, Джеймс Спэйдер, Джейсон Александр, Кэти Бейтс, Айлин Бреннан , Стивен Хилл, Рэйчел Шагалл, Кори Паркер
Описание: Макс Бэрон — двадцатисемилетний преуспевающий директор рекламного агентства, пребывающий в трауре после смерти своей молодой жены. Случайное ночное знакомство с Норой Бейкер неожиданно резко меняет его жизнь. Она — обычная земная, эмоциональная и независимая женщина, живущая на окраине города и работающая в забегаловке, и ей сорок три. Но, несмотря на внушительную разницу в возрасте и в социальном происхождении, герои переживают бурный, любовный роман. Но есть ли у этого романа будущее ?

Сэмпл: https://disk.yandex.ru/i/lc-Gr5gksoDRXw
Качество видео: HDRip (Исходник BDRip 720p)
Формат видео: AVI
Видео: XviD 73, 720x384, (1,85:1), 23,976 fps, 1789 Кбит/с, 8 бит, 0.27 bit/pixel
Аудио: Русский (АС3, 2 ch (Front: L R), 48,0 KHz, 224 Kbps)

MediaInfo

ОбщееПолное имя                               : F:\На трекер\Белый дворец  (драма, мелодрама 19990 год).aviФормат                                   : AVIФормат/Информация                        : Audio Video InterleaveРазмер файла                             : 1,45 ГбайтПродолжительность                        : 1 ч. 42 м.Общий поток                              : 2022 Кбит/секПрограмма кодирования                    : VirtualDubMod 1.5.10.2 (build 2540/release)Библиотека кодирования                   : VirtualDubMod build 2540/release
ВидеоИдентификатор : 0Формат : MPEG-4 VisualПрофиль формата : Advanced Simple@L5Параметр BVOP формата : 2Параметр QPel формата : НетПараметр GMC формата : Без точки переходаПараметр матрицы формата : ВыборочнаяИдентификатор кодека : XVIDИдентификатор кодека/Подсказка : XviDПродолжительность : 1 ч. 42 м.Битрейт : 1789 Кбит/секШирина : 720 пикселейВысота : 384 пикселяСоотношение сторон : 1,85:1Частота кадров : 23,976 (23976/1000) кадра/секЦветовое пространство : YUVСубдискретизация насыщенности : 4:2:0Битовая глубина : 8 битТип развёртки : ПрогрессивнаяМетод сжатия : С потерямиБит/(Пиксели*Кадры) : 0.270Размер потока : 1,29 Гбайт (88%)Библиотека кодирования : XviD 73
АудиоИдентификатор : 1Формат : AC-3Формат/Информация : Audio Coding 3Расширение режима : CM (complete main)Параметр Endianness формата : BigИдентификатор кодека : 2000Продолжительность : 1 ч. 42 м.Вид битрейта : ПостоянныйБитрейт : 224 Кбит/секКаналы : 2 каналаРасположение каналов : Front: L RЧастота : 48,0 КГцЧастота кадров : 31,250 кадров/сек (1536 spf)Метод сжатия : С потерямиРазмер потока : 165 Мбайт (11%)Выравнивание : Разделение по промежуткамПродолжительность промежутка : 42 мс. (1,00 видеокадр)Время предзагрузки промежутка : 500 мс.

Скриншот c названием фильма

Скриншоты

[Profile]  [PM] 
Display posts:    
Reply to topic

Current time is: 20-Jul 03:41

All times are UTC + 2



You cannot post new topics in this forum
You cannot reply to topics in this forum
You cannot edit your posts in this forum
You cannot delete your posts in this forum
You cannot vote in polls in this forum
You cannot attach files in this forum
You cannot download files in this forum