В интересах государства / Государственный принцип / La raison d\'etat / La Raison d\'État (Андре Кайятт / Andre Cayatte) [1978, Франция, Италия, Драма, политический триллер, DVDRip] [Оригинальная Полная Версия] Dub (Киностудия им. М.Горького) +

Reply to topic
 
Author
Message

Satyr ®

Gender: Unknown

Longevity: 15 years

Posts: 22031

Reputation: 56 [+] [-]

Satyr · Post 08-Jun-2023 22:00

[Quote] 

В интересах государства / Государственный принцип / La raison d'etat / La Raison d'État / Оригинальная Полная Версия
Страна: Франция, Италия
Жанр: Драма, политический триллер
Год выпуска: 1978
Продолжительность: 01:31:28
Перевод 1: Профессиональный (дублированный) Киностудия им. М.Горького + DVO (на дыры)
Роли дублируют: Александр Белявский, Лариса Данилина, Юрий Леонидов, Всеволод Ларионов, Валерий Рыжаков, Олег Мокшанцев, Виктор Рождественский, Сергей Курилов, Станислав Коренев, Николай Граббе
Перевод 2: Профессиональный (двухголосый закадровый) Киностудия "Кипарис"
Текст читают
Александр Белявский и Анна Каменкова
Субтитры: нет
Оригинальная аудиодорожка: Французский
Режиссер: Андре Кайятт / Andre Cayatte
В ролях: Жан Янн, Моника Витти, Мишель Буке, Франсуа Перье, Жан-Клод Буйон, Гэбриел Жаббур, Андре Рейбаз, Жан Ружери, Мишель Литуак, Жорж Шамара, Джесс Хан, Эрманно КазановаЖан-Пьер Делаж, Бернард Салваж, Жан-Пьер Золя, Джакомо Ассандри, Джордж Бирт, Уго Болонья, Мишель Фортен, Карло Сабатини, Андре Валарди, Доминик Валли...
Описание: Профессор Моро хочет огласить текст документов о незаконных сделках по продаже оружия, которые заключает правительство Франции. За ним устанавливается слежка, а вскоре агенты секретной службы убивают его, инсценировав автомобильную аварию. Начатое профессором дело пытается продолжить его коллега Анджела: теперь и она под колпаком спецслужб и ей грозит смертельная опасность...
Доп. информация: Рип с нового издания от Гамонт как на постере (Полная версия фильма). Вставлены все Рус озвучки включая старый добрый дубляж.
Сэмпл: http://sendfile.su/1669738
Качество видео: DVDRip
Формат видео: AVI
Видео: XVID, 672х416, 25.000 fps, 1 552 Kbps
Аудио 1: Русский (AC3 192 kbps 2 ch 48.0 KHz)
Аудио 2: Русский (AC3 192 kbps 2 ch 48.0 KHz)
Аудио 3: Французский (AC3 192 kbps 2 ch 48.0 KHz)

MediaInfo

GeneralComplete name                            : C:\Documents and Settings\admin\Мои документы\Downloads\La raison d'etat 1978.aviFormat                                   : AVIFormat/Info                              : Audio Video InterleaveFile size                                : 1.37 GiBDuration                                 : 1h 31mnOverall bit rate                         : 2 139 KbpsWriting application                      : VirtualDubMod 1.5.4.1 (build 2178/release)Writing library                          : VirtualDubMod build 2178/release
VideoID : 0Format : MPEG-4 VisualFormat profile : Advanced Simple@L5Format settings, BVOP : 1Format settings, QPel : NoFormat settings, GMC : No warppointsFormat settings, Matrix : CustomCodec ID : XVIDCodec ID/Hint : XviDDuration : 1h 31mnBit rate : 1 552 KbpsWidth : 672 pixelsHeight : 416 pixelsDisplay aspect ratio : 16:10Frame rate : 25.000 fpsColor space : YUVChroma subsampling : 4:2:0Bit depth : 8 bitsScan type : ProgressiveCompression mode : LossyBits/(Pixel*Frame) : 0.222Stream size : 1 017 MiB (73%)Writing library : XviD 67
Audio #1ID : 1Format : AC-3Format/Info : Audio Coding 3Mode extension : CM (complete main)Format settings, Endianness : BigCodec ID : 2000Duration : 1h 31mnBit rate mode : ConstantBit rate : 192 KbpsChannel(s) : 2 channelsChannel positions : Front: L RSampling rate : 48.0 KHzBit depth : 16 bitsCompression mode : LossyStream size : 126 MiB (9%)Alignment : Split accross interleavesInterleave, duration : 96 ms (2.40 video frames)Interleave, preload duration : 96 ms
Audio #2ID : 2Format : AC-3Format/Info : Audio Coding 3Mode extension : CM (complete main)Format settings, Endianness : BigCodec ID : 2000Duration : 1h 31mnBit rate mode : ConstantBit rate : 192 KbpsChannel(s) : 2 channelsChannel positions : Front: L RSampling rate : 48.0 KHzBit depth : 16 bitsCompression mode : LossyStream size : 126 MiB (9%)Alignment : Split accross interleavesInterleave, duration : 96 ms (2.40 video frames)Interleave, preload duration : 96 ms
Audio #3ID : 3Format : AC-3Format/Info : Audio Coding 3Mode extension : CM (complete main)Format settings, Endianness : BigCodec ID : 2000Duration : 1h 31mnBit rate mode : ConstantBit rate : 192 KbpsChannel(s) : 2 channelsChannel positions : Front: L RSampling rate : 48.0 KHzBit depth : 16 bitsCompression mode : LossyStream size : 126 MiB (9%)Alignment : Split accross interleavesInterleave, duration : 96 ms (2.40 video frames)Interleave, preload duration : 96 ms

Скриншот c названием фильма

Скриншоты

[Profile]  [PM] 
Display posts:    
Reply to topic

Current time is: 20-Jul 03:41

All times are UTC + 2



You cannot post new topics in this forum
You cannot reply to topics in this forum
You cannot edit your posts in this forum
You cannot delete your posts in this forum
You cannot vote in polls in this forum
You cannot attach files in this forum
You cannot download files in this forum