В конце туннеля / Al final del tunel / At the End of the Tunnel (Родриго Гранде / Rodrigo Grande) [2016, Аргентина, Испания, триллер, криминал, BDRip-AVC] Dub (iTunes) + AVO (Алексеев) + Original (Spa) + Sub (Rus, Eng, Spa)

Reply to topic
 
Author
Message

Satyr ®

Gender: Unknown

Longevity: 15 years

Posts: 22045

Reputation: 56 [+] [-]

Satyr · Post 09-Jun-2023 06:10

[Quote] 

В конце туннеля / Al final del túnel
«У них был идеальный план ограбления»
- -Страна: Аргентина, Испания
Студия: Haddock Films, Instituto de la Cinematografía y de las Artes Audiovisuales (ICAA)
Жанр: триллер, криминал
Год выпуска: 2016
Продолжительность: 02:00:23-Перевод (1): Профессиональный (полное дублирование) | (iTunes)
Перевод (2): Авторский (одноголосый закадровый) Антон Алексеев
Субтитры: Rus (Full, Eng (Full), Spa (SDH)
Оригинальная аудиодорожка: Spa-Режиссер: Родриго Гранде / Rodrigo Grande
В ролях: Леонардо Сбараглиа, Пабло Эчарри, Клара Лаго, Дэниел Моралес Комини, Уолтер Донато, Лора Фаэнца, Серджо Феррейро, Факундо Науэль Хименес, Хавьер Годино, Федерико Луппи-Описание:Банда грабителей пытается сорвать большой куш, построив подземный туннель под банком. Происходящее привлекает внимание Хоакина, парализованного человека в инвалидном кресле, проживающего в соседнем доме. Но он совсем не торопится разоблачить гангстеров, так как считает, что у него появился шанс.-
IMDB 7.0
Sample-Тип релиза: BDRip-AVC | В конце туннеля.BDRemux..mkv
Контейнер: MKV
Видео: AVC 2083 kb/s 1104 x 462 (2.390) 23.976 fps
Аудио 1: AC-3 384 kb/s 6 channels, 48.0 kHz | RUS DUB (iTunes)
Аудио 2: AC-3 448 kb/s 6 channels, 48.0 kHz | RUS AVO Антон Алексеев
Аудио 3: AC-3 448 kb/s 6 channels, 48.0 kHz | SPA
Формат субтитров: softsub [SRT]

MediaInfo | Log

Log

x264 [info]: profile High, level 4.1, 4:2:0, 8-bit
x264 [info]: frame I:1379 Avg QP:12.50 size: 62447
x264 [info]: frame P:34059 Avg QP:14.15 size: 24317
x264 [info]: frame B:137743 Avg QP:16.39 size: 7018
x264 [info]: consecutive B-frames: 1.7% 1.6% 5.6% 11.7% 17.3% 48.4% 6.4% 1.2% 2.8% 1.2% 2.2%
x264 [info]: mb I I16..4: 10.8% 74.6% 14.6%
x264 [info]: mb P I16..4: 1.7% 11.7% 1.3% P16..4: 27.8% 34.6% 13.7% 2.3% 0.2% skip: 6.8%
x264 [info]: mb B I16..4: 0.3% 1.0% 0.1% B16..8: 31.8% 22.3% 4.2% direct: 4.7% skip:35.5% L0:46.0% L1:43.0% BI:11.0%
x264 [info]: 8x8 transform intra:76.2% inter:54.4%
x264 [info]: direct mvs spatial:100.0% temporal:0.0%
x264 [info]: coded y,uvDC,uvAC intra: 79.9% 85.9% 76.8% inter: 18.6% 19.4% 8.7%
x264 [info]: i16 v,h,dc,p: 60% 11% 7% 22%
x264 [info]: i8 v,h,dc,ddl,ddr,vr,hd,vl,hu: 9% 8% 12% 9% 12% 12% 12% 12% 13%
x264 [info]: i4 v,h,dc,ddl,ddr,vr,hd,vl,hu: 9% 10% 14% 8% 13% 12% 11% 10% 12%
x264 [info]: i8c dc,h,v,p: 51% 22% 15% 13%
x264 [info]: Weighted P-Frames: Y:6.0% UV:3.5%
x264 [info]: ref P L0: 45.9% 7.5% 18.1% 7.1% 6.1% 4.1% 4.0% 2.0% 2.0% 1.5% 1.7% 0.1% 0.0%
x264 [info]: ref B L0: 68.0% 13.1% 6.8% 3.6% 2.6% 2.1% 1.7% 1.1% 0.7% 0.3%
x264 [info]: ref B L1: 93.3% 6.7%
x264 [info]: kb/s:2083.29
x264 [total]: encoded 173181 frames, 29.38 fps, 2083.29 kb/s
Format : Matroska
Format version : Version 4
File size : 2.83 GiB
Duration : 2 h 0 min
Overall bit rate : 3 365 kb/s
Movie name : Al final del túnel (2016) [torrentsland.com.ua]
Encoded date : UTC 2023-06-08 07:07:51
Writing application : mkvmerge v34.0.0 ('Sight and Seen') 64-bit
Writing library : libebml v1.3.7 + libmatroska v1.5.0
Video
ID : 1
Format : AVC
Format/Info : Advanced Video Codec
Format profile : High@L4.1
Format settings : CABAC / 11 Ref Frames
Format settings, CABAC : Yes
Format settings, Reference frames : 11 frames
Codec ID : V_MPEG4/ISO/AVC
Duration : 2 h 0 min
Bit rate : 2 083 kb/s
Width : 1 104 pixels
Height : 462 pixels
Display aspect ratio : 2.40:1
Frame rate mode : Constant
Frame rate : 23.976 (24000/1001) FPS
Color space : YUV
Chroma subsampling : 4:2:0
Bit depth : 8 bits
Scan type : Progressive
Bits/(Pixel*Frame) : 0.170
Stream size : 1.75 GiB (62%)
Title : Al final del túnel (2016) [torrentsland.com.ua]
Writing library : x264 core 164 r3107 a8b68eb
Encoding settings : cabac=1 / ref=11 / deblock=1:-3:-2 / analyse=0x3:0x133 / me=umh / subme=11 / psy=1 / psy_rd=1.00:0.05 / mixed_ref=1 / me_range=32 / chroma_me=1 / trellis=2 / 8x8dct=1 / cqm=0 / deadzone=21,11 / fast_pskip=0 / chroma_qp_offset=-3 / threads=14 / lookahead_threads=3 / sliced_threads=0 / nr=0 / decimate=1 / interlaced=0 / bluray_compat=0 / constrained_intra=0 / bframes=10 / b_pyramid=2 / b_adapt=2 / b_bias=0 / direct=3 / weightb=1 / open_gop=0 / weightp=2 / keyint=250 / keyint_min=23 / scenecut=40 / intra_refresh=0 / rc_lookahead=60 / rc=crf / mbtree=0 / crf=17.4 / qcomp=0.60 / qpmin=0 / qpmax=69 / qpstep=4 / vbv_maxrate=50000 / vbv_bufsize=62500 / crf_max=0.0 / nal_hrd=none / filler=0 / ip_ratio=1.40 / pb_ratio=1.30 / aq=3:0.90
Language : Spanish
Default : Yes
Forced : No
Audio #1
ID : 2
Format : AC-3
Format/Info : Audio Coding 3
Commercial name : Dolby Digital
Codec ID : A_AC3
Duration : 2 h 0 min
Bit rate mode : Constant
Bit rate : 384 kb/s
Channel(s) : 6 channels
Channel layout : L R C LFE Ls Rs
Sampling rate : 48.0 kHz
Frame rate : 31.250 FPS (1536 SPF)
Compression mode : Lossy
Stream size : 330 MiB (11%)
Title : Dub (iTunes)
Language : Russian
Service kind : Complete Main
Default : Yes
Forced : No
Audio #2
ID : 3
Format : AC-3
Format/Info : Audio Coding 3
Commercial name : Dolby Digital
Codec ID : A_AC3
Duration : 2 h 0 min
Bit rate mode : Constant
Bit rate : 448 kb/s
Channel(s) : 6 channels
Channel layout : L R C LFE Ls Rs
Sampling rate : 48.0 kHz
Frame rate : 31.250 FPS (1536 SPF)
Compression mode : Lossy
Stream size : 386 MiB (13%)
Title : AVO (А. Алексеев)
Language : Russian
Service kind : Complete Main
Default : No
Forced : No
Audio #3
ID : 4
Format : AC-3
Format/Info : Audio Coding 3
Commercial name : Dolby Digital
Codec ID : A_AC3
Duration : 2 h 0 min
Bit rate mode : Constant
Bit rate : 448 kb/s
Channel(s) : 6 channels
Channel layout : L R C LFE Ls Rs
Sampling rate : 48.0 kHz
Frame rate : 31.250 FPS (1536 SPF)
Compression mode : Lossy
Stream size : 386 MiB (13%)
Title : Original
Language : Spanish
Service kind : Complete Main
Default : No
Forced : No
Text #1
ID : 5
Format : UTF-8
Codec ID : S_TEXT/UTF8
Codec ID/Info : UTF-8 Plain Text
Duration : 1 h 52 min
Bit rate : 74 b/s
Frame rate : 0.175 FPS
Count of elements : 1184
Stream size : 61.2 KiB (0%)
Title : Full
Language : Russian
Default : No
Forced : No
Text #2
ID : 6
Format : UTF-8
Codec ID : S_TEXT/UTF8
Codec ID/Info : UTF-8 Plain Text
Duration : 1 h 54 min
Bit rate : 56 b/s
Frame rate : 0.210 FPS
Count of elements : 1450
Stream size : 47.9 KiB (0%)
Title : SDH
Language : Spanish
Default : No
Forced : No
Text #3
ID : 7
Format : UTF-8
Codec ID : S_TEXT/UTF8
Codec ID/Info : UTF-8 Plain Text
Duration : 1 h 52 min
Bit rate : 42 b/s
Frame rate : 0.176 FPS
Count of elements : 1183
Stream size : 34.8 KiB (0%)
Title : Full
Language : English
Default : No
Forced : No
Menu
00:00:00.000 : 00:00:00.000
00:09:06.296 : 00:09:06.296
00:17:22.750 : 00:17:22.750
00:24:26.131 : 00:24:26.131
00:30:44.843 : 00:30:44.843
00:39:58.896 : 00:39:58.896
00:45:13.711 : 00:45:13.711
00:52:21.930 : 00:52:21.930
01:04:19.522 : 01:04:19.522
01:11:23.779 : 01:11:23.779
01:25:56.902 : 01:25:56.902
01:34:39.257 : 01:34:39.257
01:48:56.697 : 01:48:56.697
01:56:15.886 : 01:56:15.886

Скриншоты




[Profile]  [PM] 
Display posts:    
Reply to topic

Current time is: 25-Jul 06:47

All times are UTC + 2



You cannot post new topics in this forum
You cannot reply to topics in this forum
You cannot edit your posts in this forum
You cannot delete your posts in this forum
You cannot vote in polls in this forum
You cannot attach files in this forum
You cannot download files in this forum