Опасные пассажиры поезда 123 / The Taking of Pelham One Two Three (Феликс Энрикез Алькала / Félix Enríquez Alcalá) [1998, США, триллер, драма, криминал, VHSRip] Dub (Варус Видео)

Reply to topic
 
Author
Message

Satyr ®

Gender: Unknown

Longevity: 15 years

Posts: 22031

Reputation: 56 [+] [-]

Satyr · Post 09-Jun-2023 06:10

[Quote] 

Опасные пассажиры поезда 123 / The Taking of Pelham One Two Three
Страна: США
Жанр: триллер, драма, криминал
Год выпуска: 1998
Продолжительность: 01:26:05
Перевод: Профессиональный (дублированный) Варус Видео
Субтитры: нет
Режиссер: Феликс Энрикез Алькала / Félix Enríquez Alcalá
В ролях: Эдвард Джеймс Олмос
Винсент Д’Онофрио
Донни Уолберг
Ричард Шифф
Лиза Видал
Тара Рослинг
Кеннет Уэлш
Лоррейн Бракко
Описание: Вооруженный мужчина захватывает вагон нью-йоркского метро, требуя выкуп за его пассажиров….
Доп. информация: Оцифровка VHS от d_rocker
Релиз
Сэмпл: https://www.sendspace.com/file/kw6i8f
Качество видео: VHSRip
Формат видео: MKV
Видео: MPEG2 Video 720x576 (4:3) 25fps 4380kbps
Аудио: 48 kHz, AC3 Dolby Digital, 2/0 (L,R) ch, ~192 kbps

MediaInfo

Опасные пассажиры поезда 123 - The Taking of Pelham One Two Three - DUB VARUS.mkv
Format : Matroska
Format version : Version 4
File size : 2.75 GiB
Duration : 1 h 26 min
Overall bit rate mode : Constant
Overall bit rate : 4 574 kb/s
Frame rate : 25.000 FPS
Encoded date : 2023-06-08 15:29:35 UTC
Writing application : mkvmerge v71.0.0 ('Altitude') 64-bit
Writing library : libebml v1.4.4 + libmatroska v1.7.1
Video
ID : 1
Format : MPEG Video
Format version : Version 2
Format profile : Main@Main
Format settings : CustomMatrix / BVOP
Format settings, BVOP : Yes
Format settings, Matrix : Custom
Format settings, GOP : M=3, N=12
Format settings, picture st : Frame
Codec ID : V_MPEG2
Codec ID/Info : MPEG 1 or 2 Video
Duration : 1 h 26 min
Bit rate mode : Constant
Bit rate : 4 380 kb/s
Width : 720 pixels
Height : 576 pixels
Display aspect ratio : 4:3
Frame rate mode : Constant
Frame rate : 25.000 FPS
Standard : PAL
Color space : YUV
Chroma subsampling : 4:2:0
Bit depth : 8 bits
Scan type : Interlaced
Scan order : Top Field First
Compression mode : Lossy
Bits/(Pixel*Frame) : 0.422
Time code of first frame : 00:00:00:00
Time code source : Group of pictures header
GOP, Open/Closed : Open
GOP, Open/Closed of first f : Closed
Stream size : 2.63 GiB (96%)
Default : Yes
Forced : No
Audio
ID : 2
Format : AC-3
Format/Info : Audio Coding 3
Commercial name : Dolby Digital
Codec ID : A_AC3
Duration : 1 h 26 min
Bit rate mode : Constant
Bit rate : 192 kb/s
Channel(s) : 2 channels
Channel layout : L R
Sampling rate : 48.0 kHz
Frame rate : 31.250 FPS (1536 SPF)
Compression mode : Lossy
Stream size : 118 MiB (4%)
Service kind : Complete Main
Default : Yes
Forced : No

Скриншоты


[Profile]  [PM] 
Display posts:    
Reply to topic

Current time is: 20-Jul 03:40

All times are UTC + 2



You cannot post new topics in this forum
You cannot reply to topics in this forum
You cannot edit your posts in this forum
You cannot delete your posts in this forum
You cannot vote in polls in this forum
You cannot attach files in this forum
You cannot download files in this forum