Экзорцист Ватикана / The Pope\'s Exorcist (Джулиус Эйвери / Julius Avery) [2023, США, Великобритания, Испания, ужасы, BDRemux 1080p] Dub (MovieDalen) + 2х MVO (Jaskier, TVShows) + Dub Ukr + Sub (Rus, Ukr etc.) + Original Eng

Reply to topic
 
Author
Message

Faust ®

Gender: Unknown

Longevity: 12 years

Posts: 23187

Reputation: 0 [+] [-]

Faust · Post 09-Jun-2023 10:15

[Quote] 

Экзорцист Ватикана
The Pope's Exorcist

Страна: США, Великобритания, Испания
Жанр: Ужасы
Год выпуска: 2023
Продолжительность: 01:43:31
Перевод 1: Профессиональный (дублированный) MovieDalen
Перевод 2: Профессиональный (многоголосый закадровый) Jaskier ненормативная лексика
Перевод 3: Профессиональный (многоголосый закадровый) TVShows
Субтитры: Русские (forced, full), украинские (forced, full), английские (forced, full), французские, немецкие, испанские, эстонские, латышские, литовские, финские, шведские, датские, норвежские
Оригинальная аудиодорожка: Aнглийский
Режиссер: Джулиус Эйвери / Julius Avery
В ролях: Рассел Кроу, Дэниэл Дзоватто, Александра Эссоу, Франко Неро, Питер ДеСоуза-Фейхони, Лорел Марсден, Корнелл Джон, Райан О’Грэйди, Бьянка Бардо, Санти Байон
Описание: Получив в наследство аббатство в Испании, вдова с двумя детьми проводила в здании ремонт, когда в её сына вселился дьявол и первым делом потребовал привести к нему священника. Знаменитый экзорцист Габриэль Аморт по заданию Папы Римского отправляется спасать мальчика и по приезде сразу понимает, что демон ему попался очень сильный и коварный.
Спасибо kro44i и Wilmots за дорожки

Тип релиза: BDRemux 1080p
Контейнер: MKV
Видео: MPEG-4 AVC, 1080p, 1920:1080 (16:9), 27912 kbps, 23.976 fps
Аудио 1: АС3, 6 ch, 48 kHz, 384 kbps Русский Dub MovieDalen
Аудио 2: АС3, 6 ch, 48 kHz, 448 kbps Русский MVO Jaskier ненормативная лексика
Аудио 3: АС3, 6 ch, 48 kHz, 448 kbps Русский MVO TVShows
Аудио 4: E-AC3, 6 ch, 48 kHz, 384 kbps Украинский Dub
Аудио 5: DTS-HD MA, 6 ch, 48 kHz, 2214 kbps, 16-bit (DTS Core 6 ch, 48 kHz, 1509 kbps, 16-bit) Английский
Формат субтитров: SRT

MediaInfo

GeneralUnique ID                                : 246755483292423747332555053233990862095 (0xB9A3609EB1657622D2AD0E49D505050F)Complete name                            : G:\The.Popes.Exorcist.2023.REMUX.mkvFormat                                   : MatroskaFormat version                           : Version 4File size                                : 23.0 GiBDuration                                 : 1 h 43 minOverall bit rate mode                    : VariableOverall bit rate                         : 31.8 Mb/sEncoded date                             : UTC 2023-06-08 09:03:58Writing application                      : mkvmerge v20.0.0 ('I Am The Sun') 64-bitWriting library                          : libebml v1.3.5 + libmatroska v1.4.8
VideoID : 1Format : AVCFormat/Info : Advanced Video CodecFormat profile : High@L4.1Format settings : CABAC / 2 Ref FramesFormat settings, CABAC : YesFormat settings, Reference frames : 2 framesFormat settings, GOP : M=1, N=10Codec ID : V_MPEG4/ISO/AVCDuration : 1 h 43 minBit rate mode : VariableBit rate : 27.9 Mb/sWidth : 1 920 pixelsHeight : 1 080 pixelsDisplay aspect ratio : 16:9Frame rate mode : ConstantFrame rate : 23.976 (24000/1001) FPSColor space : YUVChroma subsampling : 4:2:0Bit depth : 8 bitsScan type : ProgressiveBits/(Pixel*Frame) : 0.561Stream size : 20.2 GiB (88%)Language : EnglishDefault : YesForced : No
Audio #1ID : 2Format : AC-3Format/Info : Audio Coding 3Commercial name : Dolby DigitalCodec ID : A_AC3Duration : 1 h 43 minBit rate mode : ConstantBit rate : 384 kb/sChannel(s) : 6 channelsChannel layout : L R C LFE Ls RsSampling rate : 48.0 kHzFrame rate : 31.250 FPS (1536 SPF)Compression mode : LossyStream size : 284 MiB (1%)Title : Dub MovieDalenLanguage : RussianService kind : Complete MainDefault : YesForced : No
Audio #2ID : 3Format : AC-3Format/Info : Audio Coding 3Commercial name : Dolby DigitalCodec ID : A_AC3Duration : 1 h 43 minBit rate mode : ConstantBit rate : 448 kb/sChannel(s) : 6 channelsChannel layout : L R C LFE Ls RsSampling rate : 48.0 kHzFrame rate : 31.250 FPS (1536 SPF)Compression mode : LossyStream size : 332 MiB (1%)Title : MVO Jaskier ненормативная лексикаLanguage : RussianService kind : Complete MainDefault : NoForced : No
Audio #3ID : 4Format : AC-3Format/Info : Audio Coding 3Commercial name : Dolby DigitalCodec ID : A_AC3Duration : 1 h 43 minBit rate mode : ConstantBit rate : 448 kb/sChannel(s) : 6 channelsChannel layout : L R C LFE Ls RsSampling rate : 48.0 kHzFrame rate : 31.250 FPS (1536 SPF)Compression mode : LossyStream size : 332 MiB (1%)Title : MVO TVShowsLanguage : RussianService kind : Complete MainDefault : NoForced : No
Audio #4ID : 5Format : E-AC-3Format/Info : Enhanced AC-3Commercial name : Dolby Digital PlusCodec ID : A_EAC3Duration : 1 h 43 minBit rate mode : ConstantBit rate : 384 kb/sChannel(s) : 6 channelsChannel layout : L R C LFE Ls RsSampling rate : 48.0 kHzFrame rate : 31.250 FPS (1536 SPF)Compression mode : LossyStream size : 284 MiB (1%)Title : DubLanguage : UkrainianService kind : Complete MainDefault : NoForced : No
Audio #5ID : 6Format : DTS XLLFormat/Info : Digital Theater SystemsCommercial name : DTS-HD Master AudioCodec ID : A_DTSDuration : 1 h 43 minBit rate mode : VariableBit rate : 2 214 kb/sChannel(s) : 6 channelsChannel layout : C L R Ls Rs LFESampling rate : 48.0 kHzFrame rate : 93.750 FPS (512 SPF)Bit depth : 16 bitsCompression mode : LosslessStream size : 1.60 GiB (7%)Language : EnglishDefault : NoForced : No
Text #1ID : 7Format : UTF-8Codec ID : S_TEXT/UTF8Codec ID/Info : UTF-8 Plain TextDuration : 1 h 41 minBit rate : 5 b/sCount of elements : 82Stream size : 4.17 KiB (0%)Title : forcedLanguage : RussianDefault : YesForced : No
Text #2ID : 8Format : UTF-8Codec ID : S_TEXT/UTF8Codec ID/Info : UTF-8 Plain TextDuration : 1 h 41 minBit rate : 5 b/sCount of elements : 81Stream size : 4.01 KiB (0%)Title : forcedLanguage : UkrainianDefault : NoForced : No
Text #3ID : 9Format : UTF-8Codec ID : S_TEXT/UTF8Codec ID/Info : UTF-8 Plain TextDuration : 1 h 32 minBit rate : 4 b/sCount of elements : 115Stream size : 3.22 KiB (0%)Title : forcedLanguage : EnglishDefault : NoForced : No
Text #4ID : 10Format : UTF-8Codec ID : S_TEXT/UTF8Codec ID/Info : UTF-8 Plain TextDuration : 1 h 42 minBit rate : 75 b/sCount of elements : 1129Stream size : 57.1 KiB (0%)Language : RussianDefault : NoForced : No
Text #5ID : 11Format : UTF-8Codec ID : S_TEXT/UTF8Codec ID/Info : UTF-8 Plain TextDuration : 1 h 42 minBit rate : 74 b/sCount of elements : 1127Stream size : 55.9 KiB (0%)Language : UkrainianDefault : NoForced : No
Text #6ID : 12Format : UTF-8Codec ID : S_TEXT/UTF8Codec ID/Info : UTF-8 Plain TextDuration : 1 h 35 minBit rate : 47 b/sCount of elements : 1139Stream size : 33.4 KiB (0%)Language : EnglishDefault : NoForced : No
Text #7ID : 13Format : UTF-8Codec ID : S_TEXT/UTF8Codec ID/Info : UTF-8 Plain TextDuration : 1 h 42 minBit rate : 38 b/sCount of elements : 1168Stream size : 29.2 KiB (0%)Language : FrenchDefault : NoForced : No
Text #8ID : 14Format : UTF-8Codec ID : S_TEXT/UTF8Codec ID/Info : UTF-8 Plain TextDuration : 1 h 42 minBit rate : 46 b/sCount of elements : 1124Stream size : 35.4 KiB (0%)Language : GermanDefault : NoForced : No
Text #9ID : 15Format : UTF-8Codec ID : S_TEXT/UTF8Codec ID/Info : UTF-8 Plain TextDuration : 1 h 42 minBit rate : 42 b/sCount of elements : 1158Stream size : 32.0 KiB (0%)Language : SpanishDefault : NoForced : No
Text #10ID : 16Format : UTF-8Codec ID : S_TEXT/UTF8Codec ID/Info : UTF-8 Plain TextDuration : 1 h 42 minBit rate : 37 b/sCount of elements : 1206Stream size : 28.3 KiB (0%)Language : EstonianDefault : NoForced : No
Text #11ID : 17Format : UTF-8Codec ID : S_TEXT/UTF8Codec ID/Info : UTF-8 Plain TextDuration : 1 h 42 minBit rate : 42 b/sCount of elements : 1174Stream size : 31.8 KiB (0%)Language : LatvianDefault : NoForced : No
Text #12ID : 18Format : UTF-8Codec ID : S_TEXT/UTF8Codec ID/Info : UTF-8 Plain TextDuration : 1 h 42 minBit rate : 38 b/sCount of elements : 1155Stream size : 29.0 KiB (0%)Language : LithuanianDefault : NoForced : No
Text #13ID : 19Format : UTF-8Codec ID : S_TEXT/UTF8Codec ID/Info : UTF-8 Plain TextDuration : 1 h 42 minBit rate : 44 b/sCount of elements : 1100Stream size : 33.2 KiB (0%)Language : FinnishDefault : NoForced : No
Text #14ID : 20Format : UTF-8Codec ID : S_TEXT/UTF8Codec ID/Info : UTF-8 Plain TextDuration : 1 h 42 minBit rate : 42 b/sCount of elements : 892Stream size : 31.8 KiB (0%)Language : SwedishDefault : NoForced : No
Text #15ID : 21Format : UTF-8Codec ID : S_TEXT/UTF8Codec ID/Info : UTF-8 Plain TextDuration : 1 h 43 minBit rate : 41 b/sCount of elements : 850Stream size : 31.0 KiB (0%)Language : DanishDefault : NoForced : No
Text #16ID : 22Format : UTF-8Codec ID : S_TEXT/UTF8Codec ID/Info : UTF-8 Plain TextDuration : 1 h 42 minBit rate : 38 b/sCount of elements : 948Stream size : 29.3 KiB (0%)Language : NorwegianDefault : NoForced : No
Menu00:00:00.000 : en:Chapter 0100:08:08.613 : en:Chapter 0200:13:15.628 : en:Chapter 0300:19:06.562 : en:Chapter 0400:24:04.234 : en:Chapter 0500:29:12.667 : en:Chapter 0600:36:27.018 : en:Chapter 0700:42:07.691 : en:Chapter 0800:48:13.557 : en:Chapter 0900:55:06.261 : en:Chapter 1001:01:00.406 : en:Chapter 1101:07:44.018 : en:Chapter 1201:10:22.676 : en:Chapter 1301:16:53.942 : en:Chapter 1401:25:39.801 : en:Chapter 1501:36:46.300 : en:Chapter 16

Скриншоты



[Profile]  [PM] 
Display posts:    
Reply to topic

Current time is: 20-Jul 01:58

All times are UTC + 2



You cannot post new topics in this forum
You cannot reply to topics in this forum
You cannot edit your posts in this forum
You cannot delete your posts in this forum
You cannot vote in polls in this forum
You cannot attach files in this forum
You cannot download files in this forum