Первое убийство / First Kill (Стивен С. Миллер / Steven C. Miller) [2017, США, боевик, триллер, BDRemux 1080p] MVO (iTunes) + MVO (Студия "Paradox" & Omskbird records] + AVO (BadBajo - Андрей Важенин) + Original Eng

Reply to topic
 
Author
Message

Faust ®

Gender: Unknown

Longevity: 12 years

Posts: 23187

Reputation: 0 [+] [-]

Faust · Post 09-Jun-2023 14:20

[Quote] 

Первое убийство / First Kill- Страна: США
Студия: Aboretum Productions, Brookstreet Pictures, Emmett/Furla/Oasis Films (EFO Films)
Жанр: боевик, триллер
Год выпуска: 2017
Продолжительность: 01:41:42
Перевод 1: Профессиональный (многоголосый закадровый) iTunes
Перевод 2: Профессиональный (многоголосый закадровый) [Студия "Paradox" & Omskbird records]
Перевод 3: Авторский (одноголосый закадровый) BadBajo - Андрей Важенин
Субтитры: английские
Оригинальная аудиодорожка: английский
Режиссер: Стивен С. Миллер / Steven C. Miller
В ролях: Брюс Уиллис, Хейден Кристенсен, Гетин Энтони, Маги Авила, Шарлотта Кирк, Уильям ДеМео, Тамара Белоус, Хезер Йохансен, Тайлер Джон Олсон
Описание: Фильм об опытном офицере, который расследует похищение мальчика, ставшего свидетелем разборки между банковскими грабителями. Вызволить ребенка так-же торопится его молодой отец, вызывающий у полицейского серьёзные подозрения - а не был ли он сам, связан с этим ограблением?
https://www.kinopoisk.ru/film/996343/ | https://www.imdb.com/title/tt5884234/
Сэмпл: https://www.sendspace.com/file/1mdr5x
Тип релиза: BDRemux 1080p
Контейнер: MKV
Видео: AVC, 1920x1080 (16:9), 23.976 fps, 34.388 Mb/s (0.691 bit/pixel)
Аудио 1: AC-3, 48.0 kHz, 2 ch, 192 kb/s, CBR (Russian MVO)
Аудио 2: AC-3, 48.0 kHz, 2 ch, 192 kb/s, CBR (Russian MVO)
Аудио 3: AC-3, 48.0 kHz, 6 ch, 384 kb/s, CBR (Russian AVO)
Аудио 4: DTS-HD MA, 48.0 kHz, 6 ch, 3 739 kb/s, 24 bit / DTS Core : 48.0 kHz, 6 ch, 1 509 kb/s, 24 bit (English)

MediaInfo


ОбщееУникальный идентификатор                 : 229629657029040730381533313487455613530 (0xACC11031C09791852AAF407F31CB725A)Полное имя                               : H:\video\Первое убийство (First Kill) (2017 BDRemux).mkvФормат                                   : MatroskaВерсия формата                           : Version 4Размер файла                             : 27,6 ГбайтПродолжительность                        : 1 ч. 41 м.Режим общего битрейта                    : ПеременныйОбщий поток                              : 38,9 Мбит/секЧастота кадров                           : 23,976 кадра/секНазвание фильма                          : RePack by DJ BioniclДата кодирования                         : 2023-06-09 06:00:22 UTCПрограмма кодирования                    : mkvmerge v67.0.0.27 ('Under Stars') 64-bitБиблиотека кодирования                   : libebml v1.4.2 + libmatroska v1.6.4
ВидеоИдентификатор : 1Формат : AVCФормат/Информация : Advanced Video CodecПрофиль формата : High@L4.1Настройки формата : CABAC / 4 Ref FramesПараметр CABAC формата : ДаПараметр RefFrames формата : 4 кадраИдентификатор кодека : V_MPEG4/ISO/AVCПродолжительность : 1 ч. 41 м.Вид битрейта : ПеременныйБитрейт : 34,3 Мбит/секМаксимальный битрейт : 37,0 Мбит/секШирина : 1 920 пикселейВысота : 1 080 пикселейСоотношение сторон : 16:9Режим частоты кадров : ПостоянныйЧастота кадров : 23,976 (24000/1001) кадра/секЦветовое пространство : YUVСубдискретизация насыщенности : 4:2:0Битовая глубина : 8 битТип развёртки : ПрогрессивнаяБит/(Пиксели*Кадры) : 0.691Размер потока : 24,4 Гбайт (88%)Язык : RussianDefault : ДаForced : Да
Аудио #1Идентификатор : 2Формат : AC-3Формат/Информация : Audio Coding 3Коммерческое название : Dolby DigitalИдентификатор кодека : A_AC3Продолжительность : 1 ч. 41 м.Вид битрейта : ПостоянныйБитрейт : 192 Кбит/секКаналы : 2 каналаChannel layout : L RЧастота : 48,0 КГцЧастота кадров : 31,250 кадров/сек (1536 SPF)Метод сжатия : С потерямиРазмер потока : 140 Мбайт (0%)Заголовок : MVO - iTunesЯзык : RussianService kind : Complete MainDefault : ДаForced : Да
Аудио #2Идентификатор : 3Формат : AC-3Формат/Информация : Audio Coding 3Коммерческое название : Dolby DigitalИдентификатор кодека : A_AC3Продолжительность : 1 ч. 41 м.Вид битрейта : ПостоянныйБитрейт : 192 Кбит/секКаналы : 2 каналаChannel layout : L RЧастота : 48,0 КГцЧастота кадров : 31,250 кадров/сек (1536 SPF)Метод сжатия : С потерямиРазмер потока : 140 Мбайт (0%)Заголовок : MVO - Paradox & OmskbirdЯзык : RussianService kind : Complete MainDefault : НетForced : Нет
Аудио #3Идентификатор : 4Формат : AC-3Формат/Информация : Audio Coding 3Коммерческое название : Dolby DigitalИдентификатор кодека : A_AC3Продолжительность : 1 ч. 41 м.Вид битрейта : ПостоянныйБитрейт : 384 Кбит/секКаналы : 6 каналовChannel layout : L R C LFE Ls RsЧастота : 48,0 КГцЧастота кадров : 31,250 кадров/сек (1536 SPF)Метод сжатия : С потерямиРазмер потока : 279 Мбайт (1%)Заголовок : AVO | BadBajo - А.ВаженинЯзык : RussianService kind : Complete MainDefault : НетForced : Нет
Аудио #4Идентификатор : 5Формат : DTS XLLФормат/Информация : Digital Theater SystemsКоммерческое название : DTS-HD Master AudioИдентификатор кодека : A_DTSПродолжительность : 1 ч. 41 м.Вид битрейта : ПеременныйБитрейт : 3 739 Кбит/секКаналы : 6 каналовChannel layout : C L R Ls Rs LFEЧастота : 48,0 КГцЧастота кадров : 93,750 кадра/сек (512 SPF)Битовая глубина : 24 битМетод сжатия : Без потерьРазмер потока : 2,66 Гбайт (10%)Заголовок : OriginalЯзык : EnglishDefault : НетForced : Нет
Текст #1Идентификатор : 6Формат : UTF-8Идентификатор кодека : S_TEXT/UTF8Идентификатор кодека/Информация : UTF-8 Plain TextПродолжительность : 1 ч. 32 м.Битрейт : 44 бит/секЧастота кадров : 0,178 кадр/секCount of elements : 988Размер потока : 30,3 Кбайт (0%)Заголовок : FullЯзык : EnglishDefault : НетForced : Нет
Текст #2Идентификатор : 7Формат : UTF-8Идентификатор кодека : S_TEXT/UTF8Идентификатор кодека/Информация : UTF-8 Plain TextПродолжительность : 1 ч. 34 м.Битрейт : 48 бит/секЧастота кадров : 0,198 кадр/секCount of elements : 1127Размер потока : 33,8 Кбайт (0%)Заголовок : SDHЯзык : EnglishDefault : НетForced : Нет

Скриншоты


[Profile]  [PM] 
Display posts:    
Reply to topic

Current time is: 20-Jul 01:57

All times are UTC + 2



You cannot post new topics in this forum
You cannot reply to topics in this forum
You cannot edit your posts in this forum
You cannot delete your posts in this forum
You cannot vote in polls in this forum
You cannot attach files in this forum
You cannot download files in this forum