Заповедная природа Подмосковья [2014, природа, флора и фауна, научно-популярный, HDTV 1080i]

Reply to topic
 
Author
Message

Atila ®

Gender: Unknown

Longevity: 12 years

Posts: 3267

Reputation: 0 [+] [-]

Atila · Post 09-Jun-2023 18:25

[Quote] 

Заповедная природа Подмосковья
Год выпуска: 2014
Страна: Россия
Студия: RTG HD
Жанр: природа, флора и фауна, научно-популярный
Продолжительность: 00:26:25
Перевод: Не требуется
Русские субтитры: нет
Описание: Эти места заинтересовали ученых еще в середине XIX века. В Подмосковье, в урочище Долы растут травы, естественный ареал которых находится в 400 километрах к югу, в Стрелецкой степи Курской области. Как эти растения попадали в московский регион — загадка. Ботанический феномен урочища Долы в научной литературе получил специальное название — «реликтовая окская флора». Приокско-террасный заповедник — место, где правила диктует не человек, а сама природа. Ученые фиксируют действительность, не вмешиваясь в естественную жизнь охраняемых лесов и лугов, не меняя ход событий
Сэмпл: https://www.sendspace.com/file/j9fjo9
Тип релиза: HDTV 1080i
Контейнер: TS
Видео: AVC, 1920x1080 (16:9), 25.000 fps, 7 000 Kbps (0.135 bit/pixel)
Аудио: MP2, 48.0 KHz, 2 ch, 224 Kbps, CBR (Russian)

MediaInfo

GeneralID                                       : 1 (0x1)Complete name                            : C:\Users\User\Downloads\Заповедная природа Подмосковья.tsFormat                                   : MPEG-TSFile size                                : 1.38 GiBDuration                                 : 26mn 24sOverall bit rate mode                    : VariableOverall bit rate                         : 7 459 Kbps
VideoID : 67 (0x43)Menu ID : 1 (0x1)Format : AVCFormat/Info : Advanced Video CodecFormat profile : High@L4.1Format settings, CABAC : YesFormat settings, ReFrames : 3 framesFormat settings, GOP : M=3, N=33Codec ID : 27Duration : 26mn 25sBit rate mode : ConstantBit rate : 7 000 KbpsWidth : 1 920 pixelsHeight : 1 080 pixelsDisplay aspect ratio : 16:9Frame rate : 25.000 fpsStandard : PALColor space : YUVChroma subsampling : 4:2:0Bit depth : 8 bitsScan type : InterlacedScan order : Top Field FirstBits/(Pixel*Frame) : 0.135Stream size : 1.27 GiB (92%)Color primaries : BT.709Transfer characteristics : BT.709Matrix coefficients : BT.709
AudioID : 68 (0x44)Menu ID : 1 (0x1)Format : MPEG AudioFormat version : Version 1Format profile : Layer 2Codec ID : 3Duration : 26mn 24sBit rate mode : ConstantBit rate : 224 KbpsChannel(s) : 2 channelsSampling rate : 48.0 KHzCompression mode : LossyStream size : 42.3 MiB (3%)Language : Russian

Скриншоты

[Profile]  [PM] 
Display posts:    
Reply to topic

Current time is: 20-Jul 01:56

All times are UTC + 2



You cannot post new topics in this forum
You cannot reply to topics in this forum
You cannot edit your posts in this forum
You cannot delete your posts in this forum
You cannot vote in polls in this forum
You cannot attach files in this forum
You cannot download files in this forum