Форт Саган / Fort Saganne (Ален Корно / Alain Corneau) [1984, Франция, драма, военный, история, HDTVRip 720p] 2x MVO (Останкино, НТВ+) + Original Fra

Reply to topic
 
Author
Message

Faust ®

Gender: Unknown

Longevity: 12 years

Posts: 23187

Reputation: 0 [+] [-]

Faust · Post 10-Jun-2023 02:35

[Quote] 

Форт Саган / Fort Saganne
Страна: Франция
Жанр: драма, военный, история
Год выпуска: 1984
Продолжительность: 02:53:56
Перевод 1: Профессиональный (многоголосый закадровый) Останкино
Перевод 1: Профессиональный (многоголосый закадровый) НТВ+
Субтитры: нет
Оригинальная аудиодорожка: французский
Режиссер: Ален Корно / Alain Corneau
В ролях: Жерар Депардье, Филипп Нуаре, Катрин Денёв, Софи Марсо, Мишель Дюшоссуа, Роже Дюма, Жан-Луи Ришар, Жан-Лоран Коше, Пьер Торнад, Саид Амади
Описание: Шарль Саганн, будучи выходцем из крестьянской семьи, дослужился до должности командира Иностранного легиона. Из-за своего происхождения он не смог получить офицерского образования, и был отправлен в Африку, где служил под началом полковника Дюбреля.
В небольшом колониальном городке на севере Африки в Шарля Саганна влюбляется Мадлен, дочь богатых и знатных родителей. Местная знать не упускает случая напомнить Шарлю, что по низости рода он не достоин офицерского звания. А родители девушки в страхе перед мезальянсом, используют свое влияние, чтобы удалить Саганна из гарнизона и разлучают влюбленных. Командующий корпусом полковник Дюброй берет Шарля с собой в поход в Сахару, чтобы вернуть союзника Франции эмира, бежавшего вместе со своими племенами.
Доп. информация: Аудиодорожка с переводом "Останкино" - оцифровка собственной кассеты, запись с канала "ТВ6" - впервые на трекере.
Сэмпл: https://disk.yandex.ru/i/_xsj0nLFOYOAQQ
Тип релиза: HDTVRip 720p
Контейнер: MKV
Видео: AVC, 1280x544 [2,35:1], 25 fps, ~7500 kbps
Аудио 1: AC3 2.0, 48 kHz, 192 kbps - MVO к/ст "Фильмэкспорт" по заказу ТРК "Останкино" (Ирина Губанова, Елена Соловьёва, Артём Карапетян, Вячеслав Баранов, Александр Клюквин)
Аудио 2: AC3 2.0, 48 kHz, 192 kbps - MVO НТВ+ по заказу НТВ (Наталья Казначеева, Анна Молчанова, Владимир Вихров, Александр Дик, Александр Клюквин)
Аудио 3: AC3 2.0, 48 kHz, 256 kbps - французский

MediaInfo

ОбщееУникальный идентификатор                 : 200743353652483759583761582600190127546 (0x9705C37ADED294E98FF6C61E238F6DBA)Полное имя                               : F:\Fort Saganne [1984 HDTV 720p].mkvФормат                                   : MatroskaВерсия формата                           : Version 4Размер файла                             : 9,89 ГбайтПродолжительность                        : 2 ч. 53 м.Режим общего битрейта                    : ПеременныйОбщий поток                              : 8 141 Кбит/секДата кодирования                         : UTC 2023-05-29 14:41:44Программа кодирования                    : mkvmerge v19.0.0 ('Brave Captain') 32-bitБиблиотека кодирования                   : libebml v1.3.5 + libmatroska v1.4.8
ВидеоИдентификатор : 1Формат : AVCФормат/Информация : Advanced Video CodecПрофиль формата : High@L4.1Настройки формата : CABAC / 8 Ref FramesПараметр CABAC формата : ДаПараметр RefFrames формата : 8 кадровИдентификатор кодека : V_MPEG4/ISO/AVCПродолжительность : 2 ч. 53 м.Вид битрейта : ПеременныйБитрейт : 7 500 Кбит/секМаксимальный битрейт : 62,5 Мбит/секШирина : 1 280 пикселейВысота : 544 пикселяСоотношение сторон : 2,35:1Режим частоты кадров : ПостоянныйЧастота кадров : 25,000 кадров/секЦветовое пространство : YUVСубдискретизация насыщенности : 4:2:0Битовая глубина : 8 битТип развёртки : ПрогрессивнаяБит/(Пиксели*Кадры) : 0.431Размер потока : 9,11 Гбайт (92%)Библиотека кодирования : x264 core 148 r2665 a01e339Настройки программы : cabac=1 / ref=8 / deblock=1:-3:-3 / analyse=0x3:0x113 / me=umh / subme=10 / psy=1 / psy_rd=1.00:0.15 / mixed_ref=1 / me_range=24 / chroma_me=1 / trellis=2 / 8x8dct=1 / cqm=0 / deadzone=21,11 / fast_pskip=1 / chroma_qp_offset=-3 / threads=12 / lookahead_threads=1 / sliced_threads=0 / nr=0 / decimate=1 / interlaced=0 / bluray_compat=0 / constrained_intra=0 / bframes=3 / b_pyramid=2 / b_adapt=2 / b_bias=0 / direct=3 / weightb=1 / open_gop=0 / weightp=2 / keyint=250 / keyint_min=25 / scenecut=40 / intra_refresh=0 / rc_lookahead=50 / rc=2pass / mbtree=1 / bitrate=7500 / ratetol=1.0 / qcomp=0.60 / qpmin=0 / qpmax=69 / qpstep=4 / cplxblur=20.0 / qblur=0.5 / vbv_maxrate=62500 / vbv_bufsize=62500 / nal_hrd=vbr / filler=0 / ip_ratio=1.40 / aq=1:1.00Default : ДаForced : Нет
Аудио #1Идентификатор : 2Формат : AC-3Формат/Информация : Audio Coding 3Коммерческое название : Dolby DigitalИдентификатор кодека : A_AC3Продолжительность : 2 ч. 53 м.Вид битрейта : ПостоянныйБитрейт : 192 Кбит/секКаналы : 2 каналаChannel layout : L RЧастота : 48,0 КГцЧастота кадров : 31,250 кадров/сек (1536 SPF)Метод сжатия : С потерямиРазмер потока : 239 Мбайт (2%)Заголовок : MVO OstankinoЯзык : RussianService kind : Complete MainDefault : ДаForced : Нет
Аудио #2Идентификатор : 3Формат : AC-3Формат/Информация : Audio Coding 3Коммерческое название : Dolby DigitalИдентификатор кодека : A_AC3Продолжительность : 2 ч. 53 м.Вид битрейта : ПостоянныйБитрейт : 192 Кбит/секКаналы : 2 каналаChannel layout : L RЧастота : 48,0 КГцЧастота кадров : 31,250 кадров/сек (1536 SPF)Метод сжатия : С потерямиРазмер потока : 239 Мбайт (2%)Заголовок : MVO NTV+Язык : RussianService kind : Complete MainDefault : НетForced : Нет
Аудио #3Идентификатор : 4Формат : AC-3Формат/Информация : Audio Coding 3Коммерческое название : Dolby DigitalИдентификатор кодека : A_AC3Продолжительность : 2 ч. 53 м.Вид битрейта : ПостоянныйБитрейт : 256 Кбит/секКаналы : 2 каналаChannel layout : L RЧастота : 48,0 КГцЧастота кадров : 31,250 кадров/сек (1536 SPF)Метод сжатия : С потерямиРазмер потока : 318 Мбайт (3%)Язык : FrenchService kind : Complete MainDefault : НетForced : Нет

Скриншоты

[Profile]  [PM] 
Display posts:    
Reply to topic

Current time is: 20-Jul 01:55

All times are UTC + 2



You cannot post new topics in this forum
You cannot reply to topics in this forum
You cannot edit your posts in this forum
You cannot delete your posts in this forum
You cannot vote in polls in this forum
You cannot attach files in this forum
You cannot download files in this forum