Очень плохая семейка / The Estate (Дин Крэйг / Dean Craig) [2022, Великобритания, комедия, BDRip 720p] Dub + MVO (TVShows) + Sub (Eng, Spa) + Original (Eng)

Reply to topic
 
Author
Message

Faust ®

Gender: Unknown

Longevity: 12 years

Posts: 23187

Reputation: 0 [+] [-]

Faust · Post 10-Jun-2023 02:35

[Quote] 

Очень плохая семейка / The Estate
«Игры за наследство объявляются открытыми»
- Страна: Великобритания
Жанр: Комедия
Год выпуска: 2022
Продолжительность: 01:36:10
Перевод 1: Профессиональный (дублированный) | Paragraph Media
Перевод 2: Профессиональный (многоголосый закадровый) | TVShows
Субтитры: Eng (Full, SDH), Spa (Full)
Оригинальная аудиодорожка: Eng
Режиссер: Дин Крэйг / Dean Craig
В ролях:
Анна Фэрис | Anna Faris
Дэвид Духовны | David Duchovny
Кэтлин Тёрнер | Kathleen Turne

Тони Коллетт, Розмари ДеУитт, Рон Ливингстон, Кейла Монтерросо Мейя, Дэнни Винсон, Гичи Гамба, Патриша Френч-Описание:Узнав, что их очень богатая и очень вздорная тетка приболела, сестры Мейси и Саванна отправляется в ее загородное поместье в надежде получить наследство. Там они обнаруживают, в особняк нагрянули и другие родственники. Чтобы заполучить вожделенные деньги, сестрам придется завоевать доверие тетки и дискредитировать родню.-
IMDB 5.2
Sample-Тип релиза: BDRip 720p | The.Estate.2022.BDREMUX.1080p.seleZen
Контейнер: MKV
Видео: AVC 5715 kb/s 1280 x 540 (2.370) 24.000 fps
Аудио 1: АС3, 6 ch, 48 kHz, 640 kbps | DUB Paragraph Media
Аудио 2: АС3, 2 ch, 48 kHz, 192 kbps | RUS MVO TVShows
Аудио 3: DTS 1509 kb/s 6 channels, 48.0 kHz | ENG
Формат субтитров: SRT

MediaInfo | Log

Log

x264 [info]: profile High, level 4.1, 4:2:0, 8-bit
x264 [info]: frame I:1329 Avg QP:14.25 size:107527
x264 [info]: frame P:27183 Avg QP:15.13 size: 53497
x264 [info]: frame B:109957 Avg QP:17.29 size: 22962
x264 [info]: consecutive B-frames: 1.6% 1.4% 8.1% 13.1% 17.5% 34.6% 9.3% 10.4% 2.7% 0.7% 0.6%
x264 [info]: mb I I16..4: 8.3% 79.7% 12.1%
x264 [info]: mb P I16..4: 1.2% 26.5% 1.4% P16..4: 23.2% 28.8% 12.9% 2.3% 0.2% skip: 3.5%
x264 [info]: mb B I16..4: 0.1% 4.9% 0.1% B16..8: 34.0% 27.7% 6.6% direct: 8.5% skip:18.1% L0:44.0% L1:39.6% BI:16.4%
x264 [info]: 8x8 transform intra:91.6% inter:53.7%
x264 [info]: direct mvs spatial:100.0% temporal:0.0%
x264 [info]: coded y,uvDC,uvAC intra: 96.9% 92.1% 76.4% inter: 40.7% 37.8% 11.1%
x264 [info]: i16 v,h,dc,p: 41% 5% 11% 43%
x264 [info]: i8 v,h,dc,ddl,ddr,vr,hd,vl,hu: 12% 8% 14% 9% 12% 12% 10% 12% 12%
x264 [info]: i4 v,h,dc,ddl,ddr,vr,hd,vl,hu: 12% 7% 5% 9% 16% 16% 12% 12% 11%
x264 [info]: i8c dc,h,v,p: 48% 20% 19% 14%
x264 [info]: Weighted P-Frames: Y:1.8% UV:0.9%
x264 [info]: ref P L0: 45.1% 10.0% 19.2% 6.8% 6.4% 4.2% 3.9% 2.0% 2.2% 0.1% 0.0%
x264 [info]: ref B L0: 73.1% 12.7% 6.0% 3.0% 2.2% 1.7% 1.0% 0.3%
x264 [info]: ref B L1: 94.7% 5.3%
x264 [info]: kb/s:5715.43
x264 [total]: encoded 138469 frames, 18.20 fps, 5715.43 kb/s
Format : Matroska
Format version : Version 4
File size : 5.41 GiB
Duration : 1 h 36 min
Overall bit rate : 8 060 kb/s
Movie name : The Estate (2022).720p [torrentsland.com.ua]
Encoded date : UTC 2023-05-30 12:41:27
Writing application : mkvmerge v34.0.0 ('Sight and Seen') 64-bit
Writing library : libebml v1.3.7 + libmatroska v1.5.0
Video
ID : 1
Format : AVC
Format/Info : Advanced Video Codec
Format profile : High@L4.1
Format settings : CABAC / 9 Ref Frames
Format settings, CABAC : Yes
Format settings, Reference frames : 9 frames
Codec ID : V_MPEG4/ISO/AVC
Duration : 1 h 36 min
Bit rate : 5 715 kb/s
Width : 1 280 pixels
Height : 540 pixels
Display aspect ratio : 2.40:1
Frame rate mode : Constant
Frame rate : 24.000 FPS
Color space : YUV
Chroma subsampling : 4:2:0
Bit depth : 8 bits
Scan type : Progressive
Bits/(Pixel*Frame) : 0.345
Stream size : 3.84 GiB (71%)
Title : The Estate (2022).720p [torrentsland.com.ua]
Writing library : x264 core 164 r3107 a8b68eb
Encoding settings : cabac=1 / ref=9 / deblock=1:-3:-2 / analyse=0x3:0x133 / me=umh / subme=11 / psy=1 / psy_rd=1.00:0.05 / mixed_ref=1 / me_range=32 / chroma_me=1 / trellis=2 / 8x8dct=1 / cqm=0 / deadzone=21,11 / fast_pskip=0 / chroma_qp_offset=-3 / threads=17 / lookahead_threads=4 / sliced_threads=0 / nr=0 / decimate=1 / interlaced=0 / bluray_compat=0 / constrained_intra=0 / bframes=10 / b_pyramid=2 / b_adapt=2 / b_bias=0 / direct=3 / weightb=1 / open_gop=0 / weightp=2 / keyint=250 / keyint_min=23 / scenecut=40 / intra_refresh=0 / rc_lookahead=60 / rc=crf / mbtree=0 / crf=16.5 / qcomp=0.60 / qpmin=0 / qpmax=69 / qpstep=4 / vbv_maxrate=50000 / vbv_bufsize=62500 / crf_max=0.0 / nal_hrd=none / filler=0 / ip_ratio=1.40 / pb_ratio=1.30 / aq=3:0.90
Language : English
Default : Yes
Forced : No
Audio #1
ID : 2
Format : AC-3
Format/Info : Audio Coding 3
Commercial name : Dolby Digital
Codec ID : A_AC3
Duration : 1 h 36 min
Bit rate mode : Constant
Bit rate : 640 kb/s
Channel(s) : 6 channels
Channel layout : L R C LFE Ls Rs
Sampling rate : 48.0 kHz
Frame rate : 31.250 FPS (1536 SPF)
Compression mode : Lossy
Stream size : 440 MiB (8%)
Title : Dub [Paragraph Media]
Language : Russian
Service kind : Complete Main
Default : Yes
Forced : No
Audio #2
ID : 3
Format : AC-3
Format/Info : Audio Coding 3
Commercial name : Dolby Digital
Codec ID : A_AC3
Duration : 1 h 36 min
Bit rate mode : Constant
Bit rate : 192 kb/s
Channel(s) : 2 channels
Channel layout : L R
Sampling rate : 48.0 kHz
Frame rate : 31.250 FPS (1536 SPF)
Compression mode : Lossy
Stream size : 132 MiB (2%)
Title : MVO [TVShows]
Language : Russian
Service kind : Complete Main
Default : No
Forced : No
Audio #3
ID : 4
Format : DTS
Format/Info : Digital Theater Systems
Codec ID : A_DTS
Duration : 1 h 36 min
Bit rate mode : Constant
Bit rate : 1 509 kb/s
Channel(s) : 6 channels
Channel layout : C L R Ls Rs LFE
Sampling rate : 48.0 kHz
Frame rate : 93.750 FPS (512 SPF)
Bit depth : 16 bits
Compression mode : Lossy
Stream size : 1.01 GiB (19%)
Title : Original
Language : English
Default : No
Forced : No
Text #1
ID : 5
Format : UTF-8
Codec ID : S_TEXT/UTF8
Codec ID/Info : UTF-8 Plain Text
Duration : 1 h 29 min
Bit rate : 92 b/s
Frame rate : 0.327 FPS
Count of elements : 1764
Stream size : 60.6 KiB (0%)
Title : Full
Language : English
Default : No
Forced : No
Text #2
ID : 6
Format : UTF-8
Codec ID : S_TEXT/UTF8
Codec ID/Info : UTF-8 Plain Text
Duration : 1 h 31 min
Bit rate : 93 b/s
Frame rate : 0.333 FPS
Count of elements : 1837
Stream size : 63.0 KiB (0%)
Title : SDH
Language : English
Default : No
Forced : No
Text #3
ID : 7
Format : UTF-8
Codec ID : S_TEXT/UTF8
Codec ID/Info : UTF-8 Plain Text
Duration : 1 h 31 min
Bit rate : 79 b/s
Frame rate : 0.309 FPS
Count of elements : 1697
Stream size : 53.4 KiB (0%)
Title : Full
Language : Spanish
Default : No
Forced : No
Menu
00:00:00.000 : Chapter 01
00:11:07.708 : Chapter 02
00:25:56.208 : Chapter 03
00:37:11.208 : Chapter 04
00:43:30.375 : Chapter 05
00:54:07.875 : Chapter 06
01:10:07.250 : Chapter 07
01:26:08.750 : Chapter 08
01:32:50.792 : Chapter 09

Скриншоты




Compare

BD

Rip 720p
[Profile]  [PM] 
Display posts:    
Reply to topic

Current time is: 20-Jul 02:27

All times are UTC + 2



You cannot post new topics in this forum
You cannot reply to topics in this forum
You cannot edit your posts in this forum
You cannot delete your posts in this forum
You cannot vote in polls in this forum
You cannot attach files in this forum
You cannot download files in this forum