В конце туннеля / Al final del túnel / At the End of the Tunnel (Родриго Гранде / Rodrigo Grande) [2016, Аргентина, Испания, триллер, криминал, BDRip 1080p] Dub (iTunes) + AVO (Алексеев) + Original (Spa) + Sub (Rus, Eng, Spa)

Reply to topic
 
Author
Message

Faust ®

Gender: Unknown

Longevity: 12 years

Posts: 23187

Reputation: 0 [+] [-]

Faust · Post 10-Jun-2023 06:40

[Quote] 

В конце туннеля / Al final del túnel
«У них был идеальный план ограбления»
- -Страна: Аргентина, Испания
Студия: Haddock Films, Instituto de la Cinematografía y de las Artes Audiovisuales (ICAA)
Жанр: триллер, криминал
Год выпуска: 2016
Продолжительность: 02:00:23-Перевод (1): Профессиональный (полное дублирование) | (iTunes)
Перевод (2): Авторский (одноголосый закадровый) Антон Алексеев
Субтитры: Rus (Full, Eng (Full), Spa (SDH)
Оригинальная аудиодорожка: Spa-Режиссер: Родриго Гранде / Rodrigo Grande
В ролях: Леонардо Сбараглиа, Пабло Эчарри, Клара Лаго, Дэниел Моралес Комини, Уолтер Донато, Лора Фаэнца, Серджо Феррейро, Факундо Науэль Хименес, Хавьер Годино, Федерико Луппи-Описание:Банда грабителей пытается сорвать большой куш, построив подземный туннель под банком. Происходящее привлекает внимание Хоакина, парализованного человека в инвалидном кресле, проживающего в соседнем доме. Но он совсем не торопится разоблачить гангстеров, так как считает, что у него появился шанс.-
IMDB 7.0
Sample-Тип релиза: BDRip 1080p | В конце туннеля.BDRemux..mkv
Контейнер: MKV
Видео: AVC 9374 kb/s 1920 x 804 (2.388) 23.976 fps
Аудио 1: AC-3 384 kb/s 6 channels, 48.0 kHz | RUS DUB (iTunes)
Аудио 2: DTS 1509 kb/s 6 channels, 48.0 kHz | RUS AVO Антон Алексеев
Аудио 3: DTS 1509 kb/s 6 channels, 48.0 kHz | SPA
Формат субтитров: softsub [SRT]

MediaInfo | Log

Log

x264 [info]: profile High, level 4.1, 4:2:0, 8-bit
x264 [info]: frame I:1204 Avg QP:12.16 size:180370
x264 [info]: frame P:35818 Avg QP:13.65 size: 94646
x264 [info]: frame B:136159 Avg QP:15.64 size: 35669
x264 [info]: consecutive B-frames: 1.9% 3.4% 6.6% 9.4% 12.4% 57.8% 5.3% 0.4% 1.3% 0.5% 0.9%
x264 [info]: mb I I16..4: 13.8% 74.1% 12.1%
x264 [info]: mb P I16..4: 3.2% 25.7% 2.4% P16..4: 21.9% 27.7% 9.8% 1.5% 0.1% skip: 7.7%
x264 [info]: mb B I16..4: 1.0% 3.1% 0.4% B16..8: 33.1% 24.5% 4.7% direct: 8.4% skip:24.7% L0:46.8% L1:40.2% BI:13.0%
x264 [info]: 8x8 transform intra:77.3% inter:53.6%
x264 [info]: direct mvs spatial:100.0% temporal:0.0%
x264 [info]: coded y,uvDC,uvAC intra: 78.3% 86.7% 79.5% inter: 29.4% 39.8% 21.7%
x264 [info]: i16 v,h,dc,p: 54% 11% 10% 25%
x264 [info]: i8 v,h,dc,ddl,ddr,vr,hd,vl,hu: 10% 8% 18% 9% 11% 11% 10% 11% 12%
x264 [info]: i4 v,h,dc,ddl,ddr,vr,hd,vl,hu: 25% 11% 25% 5% 7% 7% 6% 6% 7%
x264 [info]: i8c dc,h,v,p: 62% 15% 12% 10%
x264 [info]: Weighted P-Frames: Y:4.4% UV:2.9%
x264 [info]: ref P L0: 48.0% 6.9% 24.1% 10.7% 9.8% 0.4% 0.0%
x264 [info]: ref B L0: 74.4% 17.3% 6.6% 1.6%
x264 [info]: ref B L1: 94.1% 5.9%
x264 [info]: kb/s:9374.19
x264 [total]: encoded 173181 frames, 12.31 fps, 9374.19 kb/s
Общее
Format : Matroska
Format version : Version 4
File size : 10.7 GiB
Duration : 2 h 0 min
Overall bit rate : 12.8 Mb/s
Movie name : Al final del túnel (2016).1080p [torrentsland.com.ua]
Encoded date : UTC 2023-06-07 20:56:19
Writing application : mkvmerge v34.0.0 ('Sight and Seen') 64-bit
Writing library : libebml v1.3.7 + libmatroska v1.5.0
Video
ID : 1
Format : AVC
Format/Info : Advanced Video Codec
Format profile : High@L4.1
Format settings : CABAC / 5 Ref Frames
Format settings, CABAC : Yes
Format settings, Reference frames : 5 frames
Codec ID : V_MPEG4/ISO/AVC
Duration : 2 h 0 min
Bit rate : 9 374 kb/s
Width : 1 920 pixels
Height : 804 pixels
Display aspect ratio : 2.40:1
Frame rate mode : Constant
Frame rate : 23.976 (24000/1001) FPS
Color space : YUV
Chroma subsampling : 4:2:0
Bit depth : 8 bits
Scan type : Progressive
Bits/(Pixel*Frame) : 0.253
Stream size : 7.88 GiB (73%)
Title : Al final del túnel (2016).1080p [torrentsland.com.ua]
Writing library : x264 core 164 r3107 a8b68eb
Encoding settings : cabac=1 / ref=5 / deblock=1:-3:-3 / analyse=0x3:0x133 / me=umh / subme=11 / psy=1 / psy_rd=1.00:0.05 / mixed_ref=1 / me_range=32 / chroma_me=1 / trellis=2 / 8x8dct=1 / cqm=0 / deadzone=21,11 / fast_pskip=0 / chroma_qp_offset=-3 / threads=24 / lookahead_threads=6 / sliced_threads=0 / nr=0 / decimate=1 / interlaced=0 / bluray_compat=0 / constrained_intra=0 / bframes=10 / b_pyramid=2 / b_adapt=2 / b_bias=0 / direct=3 / weightb=1 / open_gop=0 / weightp=2 / keyint=250 / keyint_min=23 / scenecut=40 / intra_refresh=0 / rc_lookahead=60 / rc=crf / mbtree=0 / crf=17.5 / qcomp=0.60 / qpmin=0 / qpmax=69 / qpstep=4 / vbv_maxrate=50000 / vbv_bufsize=62500 / crf_max=0.0 / nal_hrd=none / filler=0 / ip_ratio=1.40 / pb_ratio=1.30 / aq=3:0.90
Language : English
Default : Yes
Forced : No
Audio #1
ID : 2
Format : AC-3
Format/Info : Audio Coding 3
Commercial name : Dolby Digital
Codec ID : A_AC3
Duration : 2 h 0 min
Bit rate mode : Constant
Bit rate : 384 kb/s
Channel(s) : 6 channels
Channel layout : L R C LFE Ls Rs
Sampling rate : 48.0 kHz
Frame rate : 31.250 FPS (1536 SPF)
Compression mode : Lossy
Stream size : 330 MiB (3%)
Title : Dub (iTunes)
Language : Russian
Service kind : Complete Main
Default : Yes
Forced : No
Audio #2
ID : 3
Format : DTS
Format/Info : Digital Theater Systems
Codec ID : A_DTS
Duration : 2 h 0 min
Bit rate mode : Constant
Bit rate : 1 509 kb/s
Channel(s) : 6 channels
Channel layout : C L R Ls Rs LFE
Sampling rate : 48.0 kHz
Frame rate : 93.750 FPS (512 SPF)
Bit depth : 24 bits
Compression mode : Lossy
Stream size : 1.27 GiB (12%)
Title : AVO (А. Алексеев)
Language : Russian
Default : No
Forced : No
Audio #3
ID : 4
Format : DTS
Format/Info : Digital Theater Systems
Codec ID : A_DTS
Duration : 2 h 0 min
Bit rate mode : Constant
Bit rate : 1 509 kb/s
Channel(s) : 6 channels
Channel layout : C L R Ls Rs LFE
Sampling rate : 48.0 kHz
Frame rate : 93.750 FPS (512 SPF)
Bit depth : 24 bits
Compression mode : Lossy
Stream size : 1.27 GiB (12%)
Title : Original
Language : Spanish
Default : No
Forced : No
Text #1
ID : 5
Format : UTF-8
Codec ID : S_TEXT/UTF8
Codec ID/Info : UTF-8 Plain Text
Duration : 1 h 52 min
Bit rate : 74 b/s
Frame rate : 0.175 FPS
Count of elements : 1184
Stream size : 61.2 KiB (0%)
Title : Full
Language : Russian
Default : No
Forced : No
Text #2
ID : 6
Format : UTF-8
Codec ID : S_TEXT/UTF8
Codec ID/Info : UTF-8 Plain Text
Duration : 1 h 54 min
Bit rate : 56 b/s
Frame rate : 0.210 FPS
Count of elements : 1450
Stream size : 47.9 KiB (0%)
Title : SDH
Language : Spanish
Default : No
Forced : No
Text #3
ID : 7
Format : UTF-8
Codec ID : S_TEXT/UTF8
Codec ID/Info : UTF-8 Plain Text
Duration : 1 h 52 min
Bit rate : 42 b/s
Frame rate : 0.176 FPS
Count of elements : 1183
Stream size : 34.8 KiB (0%)
Title : Full
Language : English
Default : No
Forced : No
Menu
00:00:00.000 : 00:00:00.000
00:09:06.296 : 00:09:06.296
00:17:22.750 : 00:17:22.750
00:24:26.131 : 00:24:26.131
00:30:44.843 : 00:30:44.843
00:39:58.896 : 00:39:58.896
00:45:13.711 : 00:45:13.711
00:52:21.930 : 00:52:21.930
01:04:19.522 : 01:04:19.522
01:11:23.779 : 01:11:23.779
01:25:56.902 : 01:25:56.902
01:34:39.257 : 01:34:39.257
01:48:56.697 : 01:48:56.697
01:56:15.886 : 01:56:15.886

Скриншоты





Compare

BD

Rip 1080p
[Profile]  [PM] 
Display posts:    
Reply to topic

Current time is: 20-Jul 02:26

All times are UTC + 2



You cannot post new topics in this forum
You cannot reply to topics in this forum
You cannot edit your posts in this forum
You cannot delete your posts in this forum
You cannot vote in polls in this forum
You cannot attach files in this forum
You cannot download files in this forum