Кокаиновый медведь / Cocaine Bear (Элизабет Бэнкс / Elizabeth Banks) [2023, США, триллер, комедия, BDRip 720p] Dub (Bravo Records Georgia) + MVO (TVShows) + Sub Rus, Eng + Original Eng

Reply to topic
 
Author
Message

Faust ®

Gender: Unknown

Longevity: 12 years

Posts: 23217

Reputation: 0 [+] [-]

Faust · Post 10-Jun-2023 06:40

[Quote] 

Кокаиновый медведь / Cocaine Bear
«Get in line»
-
Страна: США
Студия: Lord Miller Productions, Brownstone Productions, Jurassic Party Productions
Жанр: триллер, комедия
Год выпуска: 2023
Продолжительность: 01:35:34
Перевод 1: Профессиональный (дублированный) | Bravo Records Georgia (Movie Dubbing)
Перевод 2: Профессиональный (многоголосый закадровый) | TVShows
Субтитры: Rus (Forced, 2xFull), Eng (Full, SDH)
Оригинальная аудиодорожка: Eng
Режиссер: Элизабет Бэнкс / Elizabeth Banks
В ролях:
Рэй Лиотта | Ray Liotta
Кери Рассел | Keri Russell

Олден Эренрайк, О’Ши Джексон мл, Исайя Уитлок мл., Бруклин Принс, Кристиан Конвери, Марго Мартиндейл, Джесси Тайлер Фергюсон, Ханна Хукстра, Айула Смарт-Описание:1985 год. Из пролетающего над лесами штата Джорджия самолёта наркокурьер выбрасывает несколько пакетов кокаина, часть из них находит барибал и съедает содержимое. Животное приходит в неистовство, и теперь всем туристам, рейнджерам и случайно попавшимся ему на пути бедолагам сильно не поздоровится.-
IMDB 6.0
Sample-Тип релиза: BDRip 720p | Cocaine.Bear.2023.D.BDREMUX.1080p.seleZen
Контейнер: MKV
Видео: AVC 4674 kb/s 1280 x 536 (2.388) 23.976 fps
Аудио 1: AC3, 5.1, 48 kHz, 384 kbps | RUS Bravo Records Georgia (Movie Dubbing)
Аудио 4: AC3, 5.1, 48 kHz, 640 kbps | RUS MVO TVShows
Аудио 4: DTS 1509 kb/s 6 channels, 48.0 kHz | ENG
Формат субтитров: softsub (SRT)

MediaInfo | Log

Log

x264 [info]: profile High, level 4.1, 4:2:0, 8-bit
x264 [info]: frame I:1568 Avg QP:14.01 size:147219
x264 [info]: frame P:32785 Avg QP:15.34 size: 49326
x264 [info]: frame B:103021 Avg QP:17.41 size: 14556
x264 [info]: consecutive B-frames: 3.1% 5.8% 11.1% 21.0% 17.2% 32.2% 4.6% 2.3% 1.1% 0.7% 0.8%
x264 [info]: mb I I16..4: 8.4% 68.3% 23.3%
x264 [info]: mb P I16..4: 0.6% 15.0% 1.5% P16..4: 25.3% 29.7% 17.2% 4.6% 0.8% skip: 5.3%
x264 [info]: mb B I16..4: 0.1% 1.8% 0.1% B16..8: 28.9% 24.4% 5.6% direct: 7.0% skip:32.1% L0:41.0% L1:40.1% BI:18.8%
x264 [info]: 8x8 transform intra:84.5% inter:46.7%
x264 [info]: direct mvs spatial:99.9% temporal:0.1%
x264 [info]: coded y,uvDC,uvAC intra: 96.1% 95.4% 87.8% inter: 28.0% 27.2% 14.5%
x264 [info]: i16 v,h,dc,p: 15% 8% 16% 60%
x264 [info]: i8 v,h,dc,ddl,ddr,vr,hd,vl,hu: 14% 10% 12% 9% 11% 11% 11% 11% 13%
x264 [info]: i4 v,h,dc,ddl,ddr,vr,hd,vl,hu: 14% 8% 7% 8% 15% 13% 13% 10% 12%
x264 [info]: i8c dc,h,v,p: 53% 17% 15% 15%
x264 [info]: Weighted P-Frames: Y:3.5% UV:2.2%
x264 [info]: ref P L0: 52.9% 12.3% 16.3% 5.4% 4.5% 3.0% 2.8% 1.3% 1.4% 0.1% 0.0%
x264 [info]: ref B L0: 76.4% 11.4% 5.0% 2.6% 1.9% 1.6% 0.8% 0.3%
x264 [info]: ref B L1: 94.9% 5.1%
x264 [info]: kb/s:4674.02
x264 [total]: encoded 137374 frames, 20.52 fps, 4674.02 kb/s
Format : Matroska
Format version : Version 4
File size : 4.81 GiB
Duration : 1 h 35 min
Overall bit rate : 7 205 kb/s
Movie name : Cocaine Bear (2023).720p [torrentsland.com.ua]
Encoded date : UTC 2023-06-04 07:24:03
Writing application : mkvmerge v34.0.0 ('Sight and Seen') 64-bit
Writing library : libebml v1.3.7 + libmatroska v1.5.0
Video
ID : 1
Format : AVC
Format/Info : Advanced Video Codec
Format profile : High@L4.1
Format settings : CABAC / 9 Ref Frames
Format settings, CABAC : Yes
Format settings, Reference frames : 9 frames
Codec ID : V_MPEG4/ISO/AVC
Duration : 1 h 35 min
Bit rate : 4 674 kb/s
Width : 1 280 pixels
Height : 536 pixels
Display aspect ratio : 2.40:1
Frame rate mode : Constant
Frame rate : 23.976 (24000/1001) FPS
Color space : YUV
Chroma subsampling : 4:2:0
Bit depth : 8 bits
Scan type : Progressive
Bits/(Pixel*Frame) : 0.284
Stream size : 3.12 GiB (65%)
Title : Cocaine Bear (2023).720p [torrentsland.com.ua]
Writing library : x264 core 164 r3107 a8b68eb
Encoding settings : cabac=1 / ref=9 / deblock=1:-3:-2 / analyse=0x3:0x133 / me=umh / subme=11 / psy=1 / psy_rd=1.00:0.05 / mixed_ref=1 / me_range=32 / chroma_me=1 / trellis=2 / 8x8dct=1 / cqm=0 / deadzone=21,11 / fast_pskip=0 / chroma_qp_offset=-3 / threads=17 / lookahead_threads=4 / sliced_threads=0 / nr=0 / decimate=1 / interlaced=0 / bluray_compat=0 / constrained_intra=0 / bframes=10 / b_pyramid=2 / b_adapt=2 / b_bias=0 / direct=3 / weightb=1 / open_gop=0 / weightp=2 / keyint=250 / keyint_min=23 / scenecut=40 / intra_refresh=0 / rc_lookahead=60 / rc=crf / mbtree=0 / crf=15.9 / qcomp=0.60 / qpmin=0 / qpmax=69 / qpstep=4 / vbv_maxrate=50000 / vbv_bufsize=62500 / crf_max=0.0 / nal_hrd=none / filler=0 / ip_ratio=1.40 / pb_ratio=1.30 / aq=3:0.90
Language : English
Default : Yes
Forced : No
Audio #1
ID : 2
Format : AC-3
Format/Info : Audio Coding 3
Commercial name : Dolby Digital
Codec ID : A_AC3
Duration : 1 h 35 min
Bit rate mode : Constant
Bit rate : 384 kb/s
Channel(s) : 6 channels
Channel layout : L R C LFE Ls Rs
Sampling rate : 48.0 kHz
Frame rate : 31.250 FPS (1536 SPF)
Compression mode : Lossy
Stream size : 262 MiB (5%)
Title : DUB
Language : Russian
Service kind : Complete Main
Default : Yes
Forced : No
Audio #2
ID : 3
Format : AC-3
Format/Info : Audio Coding 3
Commercial name : Dolby Digital
Codec ID : A_AC3
Duration : 1 h 35 min
Bit rate mode : Constant
Bit rate : 640 kb/s
Channel(s) : 6 channels
Channel layout : L R C LFE Ls Rs
Sampling rate : 48.0 kHz
Frame rate : 31.250 FPS (1536 SPF)
Compression mode : Lossy
Stream size : 438 MiB (9%)
Title : MVO TVShows
Language : Russian
Service kind : Complete Main
Default : No
Forced : No
Audio #3
ID : 4
Format : DTS
Format/Info : Digital Theater Systems
Codec ID : A_DTS
Duration : 1 h 35 min
Bit rate mode : Constant
Bit rate : 1 509 kb/s
Channel(s) : 6 channels
Channel layout : C L R Ls Rs LFE
Sampling rate : 48.0 kHz
Frame rate : 93.750 FPS (512 SPF)
Bit depth : 24 bits
Compression mode : Lossy
Stream size : 1.01 GiB (21%)
Title : Original
Language : English
Default : No
Forced : No
Text #1
ID : 5
Format : UTF-8
Codec ID : S_TEXT/UTF8
Codec ID/Info : UTF-8 Plain Text
Duration : 1 h 28 min
Bit rate : 2 b/s
Frame rate : 0.006 FPS
Count of elements : 32
Stream size : 1.72 KiB (0%)
Title : Forced
Language : Russian
Default : Yes
Forced : No
Text #2
ID : 6
Format : UTF-8
Codec ID : S_TEXT/UTF8
Codec ID/Info : UTF-8 Plain Text
Duration : 1 h 34 min
Bit rate : 73 b/s
Frame rate : 0.237 FPS
Count of elements : 1344
Stream size : 50.8 KiB (0%)
Title : Full
Language : Russian
Default : No
Forced : No
Text #3
ID : 7
Format : UTF-8
Codec ID : S_TEXT/UTF8
Codec ID/Info : UTF-8 Plain Text
Duration : 1 h 29 min
Bit rate : 92 b/s
Frame rate : 0.272 FPS
Count of elements : 1460
Stream size : 60.7 KiB (0%)
Title : Full Cool Story Blog}_(18+)
Language : Russian
Default : No
Forced : No
Text #4
ID : 8
Format : UTF-8
Codec ID : S_TEXT/UTF8
Codec ID/Info : UTF-8 Plain Text
Duration : 1 h 30 min
Bit rate : 58 b/s
Frame rate : 0.290 FPS
Count of elements : 1583
Stream size : 39.2 KiB (0%)
Title : Full
Language : English
Default : No
Forced : No
Text #5
ID : 9
Format : UTF-8
Codec ID : S_TEXT/UTF8
Codec ID/Info : UTF-8 Plain Text
Duration : 1 h 35 min
Bit rate : 68 b/s
Frame rate : 0.337 FPS
Count of elements : 1929
Stream size : 47.7 KiB (0%)
Title : SDH
Language : English
Default : No
Forced : No
Menu
00:00:00.000 : Chapter 01
00:06:52.579 : Chapter 02
00:09:20.477 : Chapter 03
00:13:01.114 : Chapter 04
00:16:24.692 : Chapter 05
00:18:46.000 : Chapter 06
00:23:40.169 : Chapter 07
00:27:49.877 : Chapter 08
00:33:35.972 : Chapter 09
00:41:29.821 : Chapter 10
00:48:01.462 : Chapter 11
00:55:21.860 : Chapter 12
00:59:55.842 : Chapter 13
01:04:02.839 : Chapter 14
01:07:43.101 : Chapter 15
01:12:57.957 : Chapter 16
01:16:36.634 : Chapter 17
01:21:53.992 : Chapter 18
01:26:32.854 : Chapter 19
01:29:30.156 : Chapter 20

Compare

BD

Rip 720p
[Profile]  [PM] 
Display posts:    
Reply to topic

Current time is: 25-Jul 05:33

All times are UTC + 2



You cannot post new topics in this forum
You cannot reply to topics in this forum
You cannot edit your posts in this forum
You cannot delete your posts in this forum
You cannot vote in polls in this forum
You cannot attach files in this forum
You cannot download files in this forum